Максимальный риск / Maximum Risk (1996) BDRip 720p от 0ptimus | D, P, A

 
Автор Сообщение

sergej644 ®

Пол:

Стаж: 4 года 11 месяцев

Сообщений: 6036

Откуда: Soviet Union



Награды: Нет

Торрент-статистика

Создавать темы 05-Окт-2014 15:52

[Цитировать]

--Максимальный риск | Maximum Risk | Информация о фильме
Название: Максимальный риск
Оригинальное название: Maximum Risk
Год выхода: 1996
Жанр: Боевик, триллер, приключения
Режиссер: Ринго Лэм
В ролях: Жан-Клод Ван Дамм, Наташа Хенстридж, Жан-Юг Англад, Зэк Гренье, Пол Бен-Виктор, Фрэнк Сенгер, Дэвид Хемблен, Стефани Одран
О фильме:
Французский полицейский Ален Моро узнает о том, что один из погибших в перестрелке бандитов по имени Михаил очень похож на него. И это мягко сказано: на самом деле у них просто одно лицо. Мать Алена неожиданно признается в том, что Михаил — это его брат-близнец, оставленный в роддоме по настоянию семьи. Полицейский решает узнать о погибшем брате как можно больше. Он отправляется в Нью-Йорк. И чем ближе он к цели, тем меньше шансов выжить...

Страна: США
Студия: Columbia Pictures Corporation
Продолжительность: 01:40:34
Перевод: Дублированный, профессиональный многоголосый, авторский одноголосый
Файл
Кодек: h264
Качество: BDRip 720p
Видео: 5076 Кбит/с, 1280x534, 23.976 кадр/с
Звук:
• №1: Русский (АС3, 6 ch, 640 Кбит/с) Дублированный
• №2: Русский (АС3, 2 ch, 192 Кбит/с) Профессиональный многоголосый [ОРТ]
• №3: Русский (АС3, 2 ch, 192 Кбит/с) Профессиональный многоголосый [Видеосервис]
• №4: Русский (АС3, 2 ch, 192 Кбит/с) Авторский одноголосый [Андрей Гаврилов]
• №5: Русский (АС3, 2 ch, 192 Кбит/с) Авторский одноголосый [Юрий Живов]
• №6: Русский (АС3, 6 ch, 448 Кбит/с) Авторский одноголосый [Евгений Гаевский]
• №7: Украинский (АС3, 6 ch, 384 Кбит/с) Профессиональный многоголосый [К1]
• №8: Английский (АС3, 6 ch, 640 Кбит/с)
Субтитры: Русские (форсированные, полные), английские

MediaInfo

--------------------------------------------------------------------------------------
x264 [info]: frame I:1121 Avg QP:17.55 size: 86878
x264 [info]: frame P:33250 Avg QP:19.55 size: 41239
x264 [info]: frame B:110325 Avg QP:20.22 size: 21339
--------------------------------------------------------------------------------------
Полное имя : Maximum.risk.1996.x264.BDRip.720p.0ptimus.mkv
Формат : Matroska
Версия формата : Version 2
Размер файла : 4,73 Гбайт
Продолжительность : 1 ч. 40 м.
Общий поток : 6734 Кбит/сек
Название фильма : Максимальный риск | Maximum Risk [1996] -= BDRip (720p) by 0ptimus =-
Дата кодирования : UTC 2014-04-19 08:18:50
Программа кодирования : mkvmerge v6.6.0 ('The Edge Of The In Between') built on Dec 1 2013 17:55:00
Библиотека кодирования : libebml v1.3.0 + libmatroska v1.4.1
Видео
Идентификатор : 1
Формат : AVC
Формат/Информация : Advanced Video Codec
Профиль формата : High@L4.1
Параметр CABAC формата : Да
Параметр ReFrames формата : 9 кадров
Идентификатор кодека : V_MPEG4/ISO/AVC
Продолжительность : 1 ч. 40 м.
Битрейт : 5076 Кбит/сек
Ширина : 1280 пикселей
Высота : 534 пикселя
Соотношение сторон : 2,40:1
Режим частоты кадров : Постоянный
Частота кадров : 23,976 кадра/сек
Цветовое пространство : YUV
Субдискретизация насыщенности : 4:2:0
Битовая глубина : 8 бит
Тип развёртки : Прогрессивная
Бит/(Пиксели*Кадры) : 0.310
Размер потока : 3,47 Гбайт (73%)
Заголовок : Rip by 0ptimus
Библиотека кодирования : x264 core 125 r2208 d9d2288
Настройки программы : cabac=1 / ref=9 / deblock=1:-2:-1 / analyse=0x3:0x113 / me=umh / subme=11 / psy=1 / psy_rd=1.00:0.20 / mixed_ref=1 / me_range=48 / chroma_me=1 / trellis=2 / 8x8dct=1 / cqm=0 / deadzone=21,11 / fast_pskip=0 / chroma_qp_offset=-3 / threads=4 / lookahead_threads=1 / sliced_threads=0 / nr=0 / decimate=0 / interlaced=0 / bluray_compat=0 / constrained_intra=0 / bframes=8 / b_pyramid=2 / b_adapt=2 / b_bias=0 / direct=3 / weightb=1 / open_gop=0 / weightp=2 / keyint=240 / keyint_min=23 / scenecut=40 / intra_refresh=0 / rc_lookahead=40 / rc=2pass / mbtree=0 / bitrate=5076 / ratetol=1.0 / qcomp=0.60 / qpmin=0 / qpmax=69 / qpstep=4 / cplxblur=20.0 / qblur=0.5 / vbv_maxrate=50000 / vbv_bufsize=50000 / nal_hrd=none / ip_ratio=1.40 / pb_ratio=1.30 / aq=1:1.00
Язык : English
Default : Да
Forced : Да
Аудио #1
Идентификатор : 2
Формат : AC-3
Формат/Информация : Audio Coding 3
Расширение режима : CM (complete main)
Параметр Endianness формата : Big
Идентификатор кодека : A_AC3
Продолжительность : 1 ч. 40 м.
Вид битрейта : Постоянный
Битрейт : 640 Кбит/сек
Каналы : 6 каналов
Расположение каналов : Front: L C R, Side: L R, LFE
Частота : 48,0 КГц
Битовая глубина : 16 бит
Метод сжатия : С потерями
Размер потока : 460 Мбайт (10%)
Заголовок : Дублированный AC3 5.1 @ 640 kbps
Язык : Russian
Default : Да
Forced : Да
Аудио #2
Идентификатор : 3
Формат : AC-3
Формат/Информация : Audio Coding 3
Расширение режима : CM (complete main)
Параметр Endianness формата : Big
Идентификатор кодека : A_AC3
Продолжительность : 1 ч. 40 м.
Вид битрейта : Постоянный
Битрейт : 192 Кбит/сек
Каналы : 2 канала
Расположение каналов : Front: L R
Частота : 48,0 КГц
Битовая глубина : 16 бит
Метод сжатия : С потерями
Размер потока : 138 Мбайт (3%)
Заголовок : Многоголосый AC3 2.0 @ 192 kbps
Язык : Russian
Default : Нет
Forced : Нет
Аудио #3
Идентификатор : 4
Формат : AC-3
Формат/Информация : Audio Coding 3
Расширение режима : CM (complete main)
Параметр Endianness формата : Big
Идентификатор кодека : A_AC3
Продолжительность : 1 ч. 40 м.
Вид битрейта : Постоянный
Битрейт : 192 Кбит/сек
Каналы : 2 канала
Расположение каналов : Front: L R
Частота : 48,0 КГц
Битовая глубина : 16 бит
Метод сжатия : С потерями
Размер потока : 138 Мбайт (3%)
Заголовок : Авторский [Юрий Живов] AC3 2.0 @ 192 kbps
Язык : Russian
Default : Нет
Forced : Нет
Аудио #4
Идентификатор : 5
Формат : AC-3
Формат/Информация : Audio Coding 3
Расширение режима : CM (complete main)
Параметр Endianness формата : Big
Идентификатор кодека : A_AC3
Продолжительность : 1 ч. 40 м.
Вид битрейта : Постоянный
Битрейт : 640 Кбит/сек
Каналы : 6 каналов
Расположение каналов : Front: L C R, Side: L R, LFE
Частота : 48,0 КГц
Битовая глубина : 16 бит
Метод сжатия : С потерями
Размер потока : 460 Мбайт (10%)
Заголовок : AC3 5.1 @ 640 kbps
Язык : English
Default : Нет
Forced : Нет
Текст #1
Идентификатор : 6
Формат : UTF-8
Идентификатор кодека : S_TEXT/UTF8
Идентификатор кодека/Информация : UTF-8 Plain Text
Заголовок : Форсированные
Язык : Russian
Default : Нет
Forced : Нет
Текст #2
Идентификатор : 7
Формат : UTF-8
Идентификатор кодека : S_TEXT/UTF8
Идентификатор кодека/Информация : UTF-8 Plain Text
Язык : Russian
Default : Нет
Forced : Нет
Текст #3
Идентификатор : 8
Формат : UTF-8
Идентификатор кодека : S_TEXT/UTF8
Идентификатор кодека/Информация : UTF-8 Plain Text
Язык : English
Default : Да
Forced : Нет
Меню
00:00:00.000 : :Chapter 01
00:08:53.658 : :Chapter 02
00:12:40.593 : :Chapter 03
00:20:04.244 : :Chapter 04
00:26:00.350 : :Chapter 05
00:32:07.050 : :Chapter 06
00:35:44.267 : :Chapter 07
00:43:14.425 : :Chapter 08
00:50:43.623 : :Chapter 09
00:57:10.552 : :Chapter 10
01:04:18.271 : :Chapter 11
01:09:21.407 : :Chapter 12
01:12:14.663 : :Chapter 13
01:18:02.010 : :Chapter 14
01:21:30.176 : :Chapter 15
01:29:23.149 : :Chapter 16

Скриншоты



Релиз от:
[Профиль] [ЛС]
Показать сообщения:    

Текущее время: Сегодня 14:03

Часовой пояс: GMT



Вы не можете начинать темы
Вы не можете отвечать на сообщения
Вы не можете редактировать свои сообщения
Вы не можете удалять свои сообщения
Вы не можете голосовать в опросах
Вы не можете прикреплять файлы к сообщениям
Вы не можете скачивать файлы