Макро. Катманду наследия Непала / Macro. Kathmandu heritage Nepal (Артур Абагян / Artur Abagyan) [2013, Документальный, видовой, BDRip 720p]

 
Автор Сообщение

TorrentFilm ®

Пол:

Стаж: 2 года

Сообщений: 7741



Награды: Нет

Торрент-статистика

Создавать темы 22-Дек-2014 02:00

[Цитировать]

Непал. Наследие Катманду: Макро / Nepal. Heritage of Katmandu: Macro
Год выпуска: 2013
Страна: Россия
Студия: RATNA-Video
Жанр: Документальный, видовой, relax-video
Продолжительность: 00:43:35
Перевод: Не требуется
Русские субтитры: нет
Режиссер: Артур Абагян & RATNA-Video / Artur Abagyan & RATNA-Video
Описание: Наследие долины Катманду наполнено множеством красивейщих узоров, каждый из которых ни разу не повторяется. Где каждая деталь архитектуры является самостоятельным произведением искусства. Непальские мастера вдыхали жизнь в камень, металл, дерево. Каждая из этих замечательных деталей требует отдельного рассмотрения. Этот фильм - приглашение в макромир наследия долины Катманду.
Тип релиза: HDRip 720p
Контейнер: MKV
Видео: AVC1, 1280x720, 16:9, 4000 kbps, 25 fps
Аудио: mpga, 2 ch, 128 kbps, 44 kHz

MediaInfo

ОбщееУникальный идентификатор : 228741655276427810425635205000636442324 (0xAC160A53E3CD0D192DECD279DCC0A6D4)Полное имя : C:\\MACRO KATHMANDU.mkvФормат : MatroskaВерсия формата : Version 4 / Version 2Размер файла : 1,23 ГбайтПродолжительность : 43 м.Общий поток : 4035 Кбит/секПрограмма кодирования : Lavf55.19.104Библиотека кодирования : Lavf55.19.104
ВидеоИдентификатор : 1Формат : AVCФормат/Информация : Advanced Video CodecПрофиль формата : Baseline@L1.3Параметр CABAC формата : НетПараметр ReFrames формата : 2 кадраИдентификатор кодека : V_MPEG4/ISO/AVCПродолжительность : 43 м.Битрейт : 4000 Кбит/секШирина : 1280 пикселейВысота : 720 пикселейСоотношение сторон : 16:9Режим частоты кадров : ПостоянныйЧастота кадров : 25,000 кадров/секЦветовое пространство : YUVСубдискретизация насыщенности : 4:2:0Битовая глубина : 8 битТип развёртки : ПрогрессивнаяБит/(Пиксели*Кадры) : 0.174Размер потока : 1,17 Гбайт (95%)Заголовок : VideoБиблиотека кодирования : x264 core 140 r2377 1ca7bb9Настройки программы : cabac=0 / ref=2 / deblock=1:0:0 / analyse=0x1:0x111 / me=umh / subme=6 / psy=1 / psy_rd=1.00:0.00 / mixed_ref=1 / me_range=16 / chroma_me=1 / trellis=0 / 8x8dct=0 / cqm=0 / deadzone=21,11 / fast_pskip=1 / chroma_qp_offset=-2 / threads=6 / lookahead_threads=1 / sliced_threads=0 / nr=0 / decimate=1 / interlaced=0 / bluray_compat=0 / constrained_intra=0 / bframes=0 / weightp=0 / keyint=250 / keyint_min=25 / scenecut=40 / intra_refresh=0 / rc_lookahead=40 / rc=abr / mbtree=1 / bitrate=4000 / ratetol=1.0 / qcomp=0.60 / qpmin=0 / qpmax=69 / qpstep=4 / ip_ratio=1.40 / aq=1:1.00Default : ДаForced : Нет
АудиоИдентификатор : 2Формат : MPEG AudioВерсия формата : Version 1Профиль формата : Layer 3Режим : Joint stereoРасширение режима : MS StereoИдентификатор кодека : A_MPEG/L3Идентификатор кодека/Подсказка : MP3Продолжительность : 43 м.Вид битрейта : ПостоянныйБитрейт : 128 Кбит/секКаналы : 2 каналаЧастота : 44,1 КГцМетод сжатия : С потерямиЗадержка видео : -25 мс.Размер потока : 39,9 Мбайт (3%)Заголовок : AudioБиблиотека кодирования : LAME3.98.4Default : ДаForced : Нет

Скриншоты

[Профиль] [ЛС]
Показать сообщения:    

Текущее время: Сегодня 23:30

Часовой пояс: GMT



Вы не можете начинать темы
Вы не можете отвечать на сообщения
Вы не можете редактировать свои сообщения
Вы не можете удалять свои сообщения
Вы не можете голосовать в опросах
Вы не можете прикреплять файлы к сообщениям
Вы не можете скачивать файлы