МакКонки / McConkey (Rob Bruce, Scott Gaffney) [2006, Документальный, спорт, BDRemux 1080p]

 
Автор Сообщение

TorrentFilm ®

Пол:

Стаж: 1 год 11 месяцев

Сообщений: 7741



Награды: Нет

Торрент-статистика

Создавать темы 25-Янв-2015 00:00

[Цитировать]

МакКонки / McConkey- Год выпуска: 2013
Страна: США
Жанр: Документальный, спорт
Продолжительность: 01:49:50
Перевод: Любительский одноголосый (Сергей Бельчиков ака ZERZIA)
Русские субтитры: есть
Режиссер: Rob Bruce, Scott Gaffney, Murray Wais, Steve Winter, David Zieff
В ролях: Shane McConkey, Sherry McConkey, Mike Douglas, Bob Burnquist, Miles Daisher и др.-Описание: Документальный фильм студии Red Bull Media House, снятый совместно с компанией Matchstick Productions, который посвящен великому спортсмену, сделавшему очень много для развития своего вида спорта и для воплощения в жизнь своих устремлений. Шейна МакКонки знают и уважают как основоположника ньюскула и ski-BASE, а его талант и «фирменный» искрометный юмор сыграли неоценимую роль в жизни многих людей. В фильме использованы материалы из интервью с его друзьями, родными и известными спортсменами, которые раскрывают его личность и его взгляд на мир.
Шейн МакКонки (c)
«Мне интересно делать интересные вещи. Когда я смотрю лыжное кино, мне накласть, кто там самый стильный, а кто – самый техничный. Мне нравится, когда Джон МакМюррей делает бэкфлип в кусты или мочит по любой фигне, какая попадет под руку. Люди, в основной своей массе, не уважают клоунов. В ж...у! По мне крепкое очко по-любому круче всякого стиля».
-Доп. информация:
Сохранены оригинальные чаптеры как на Blu-ray
За Blu-ray образ большое спасибо Electr0man!-Сэмпл
Тип релиза: BDRemux 1080p
Контейнер: MKV
Видео: H.264/AVC, 1920x1080, 16:9, ~21,9Mbps, 23,976 fps
Аудио 1: Russian, AC-3, 2.0, 48 kHz, 16 bit, 192 kbps
Аудио 2: English, DTS MA, 5.1, 48 kHz, 24 bit, 1509 kbps
Субтитры: Russian (Кирилл Батюк), French, Spanish, Portuguese, German, Japanese
Формат субтитров: (UTF-8)

Отчет MediaInfo

Общее
Уникальный идентификатор : 203767568503236250071497890480892956906 (0x994C34C8B4D3FD6C9836E2F03BA850EA)
Полное имя : F:\McConkey 2013 BDremux.mkv
Формат : Matroska
Версия формата : Version 4 / Version 2
Размер файла : 16,8 Гбайт
Продолжительность : 1 ч. 49 м.
Режим общего битрейта : Переменный
Общий поток : 21,9 Мбит/сек
Дата кодирования : UTC 2015-01-19 23:37:48
Программа кодирования : mkvmerge v7.4.0 ('Circles') 32bit built on Dec 12 2014 12:10:09
Библиотека кодирования : libebml v1.3.0 + libmatroska v1.4.1
_STATISTICS_WRITING_APP : mkvmerge v7.4.0 ('Circles') 32bit built on Dec 12 2014 12:10:09
_STATISTICS_WRITING_DATE_UTC : 2015-01-19 23:37:48
_STATISTICS_TAGS : BPS DURATION NUMBER_OF_FRAMES NUMBER_OF_BYTES
DURATION : 01:49:48.544000000
NUMBER_OF_FRAMES : 205892
NUMBER_OF_BYTES : 158125056
Видео
Идентификатор : 1
Формат : AVC
Формат/Информация : Advanced Video Codec
Профиль формата : High@L4.1
Параметр CABAC формата : Да
Параметр ReFrames формата : 3 кадра
Параметр GOP формата : M=3, N=12
Идентификатор кодека : V_MPEG4/ISO/AVC
Продолжительность : 1 ч. 49 м.
Вид битрейта : Переменный
Битрейт : 19,7 Мбит/сек
Максимальный битрейт : 34,3 Мбит/сек
Ширина : 1920 пикселей
Высота : 1080 пикселей
Соотношение сторон : 16:9
Частота кадров : 23,976 кадра/сек
Стандарт вещания : NTSC
Цветовое пространство : YUV
Субдискретизация насыщенности : 4:2:0
Битовая глубина : 8 бит
Тип развёртки : Прогрессивная
Бит/(Пиксели*Кадры) : 0.396
Размер потока : 15,1 Гбайт (90%)
Default : Да
Forced : Нет
Основные цвета : BT.709-5, BT.1361, IEC 61966-2-4, SMPTE RP177
Характеристики трансфера : BT.709-5, BT.1361
Коэффициенты матрицы : BT.709-5, BT.1361, IEC 61966-2-4 709, SMPTE RP177
Аудио #1
Идентификатор : 2
Формат : AC-3
Формат/Информация : Audio Coding 3
Расширение режима : CM (complete main)
Идентификатор кодека : A_AC3
Продолжительность : 1 ч. 49 м.
Вид битрейта : Постоянный
Битрейт : 192 Кбит/сек
Каналы : 2 канала
Расположение каналов : Front: L R
Частота : 48,0 КГц
Битовая глубина : 16 бит
Метод сжатия : С потерями
Размер потока : 151 Мбайт (1%)
Язык : Russian
Default : Да
Forced : Нет
Аудио #2
Идентификатор : 3
Формат : DTS
Формат/Информация : Digital Theater Systems
Профиль формата : MA / Core
Идентификатор кодека : A_DTS
Продолжительность : 1 ч. 49 м.
Вид битрейта : Переменный
Битрейт : 1561 Кбит/сек / 1510 Кбит/сек
Каналы : 6 каналов
Расположение каналов : Front: L C R, Side: L R, LFE
Частота : 48,0 КГц
Битовая глубина : 24 бит
Метод сжатия : Без потерь / Lossy
Язык : English
Default : Нет
Forced : Нет
Текст #1
Идентификатор : 4
Формат : UTF-8
Идентификатор кодека : S_TEXT/UTF8
Идентификатор кодека/Информация : UTF-8 Plain Text
Язык : Russian
Default : Нет
Forced : Нет
Текст #2
Идентификатор : 5
Формат : UTF-8
Идентификатор кодека : S_TEXT/UTF8
Идентификатор кодека/Информация : UTF-8 Plain Text
Язык : French
Default : Нет
Forced : Нет
Текст #3
Идентификатор : 6
Формат : UTF-8
Идентификатор кодека : S_TEXT/UTF8
Идентификатор кодека/Информация : UTF-8 Plain Text
Язык : Spanish
Default : Нет
Forced : Нет
Текст #4
Идентификатор : 7
Формат : UTF-8
Идентификатор кодека : S_TEXT/UTF8
Идентификатор кодека/Информация : UTF-8 Plain Text
Язык : Portuguese
Default : Нет
Forced : Нет
Текст #5
Идентификатор : 8
Формат : UTF-8
Идентификатор кодека : S_TEXT/UTF8
Идентификатор кодека/Информация : UTF-8 Plain Text
Язык : German
Default : Нет
Forced : Нет
Текст #6
Идентификатор : 9
Формат : UTF-8
Идентификатор кодека : S_TEXT/UTF8
Идентификатор кодека/Информация : UTF-8 Plain Text
Язык : Japanese
Default : Нет
Forced : Нет
Меню
00:00:00.000 : en:Intro
00:02:07.000 : en:Childhood and Early Years
00:21:12.000 : en:Breakthrough: Pro Mogul, Squaw Valley, Major Success -- and Saucer Boy
00:40:20.000 : en:A New Passion: BASE Jumping
00:45:18.000 : en:Sherry
00:59:50.000 : en:Ski BASE
01:12:50.000 : en:Husband, Father, Warrior
01:24:30.000 : en:Wingsuit Ski BASE
01:33:00.000 : en:Sass Pordoi, March 26 & Shane's Legacy
01:46:46.000 : en:Credits

Скриншоты

[Профиль] [ЛС]
Показать сообщения:    

Текущее время: Сегодня 07:06

Часовой пояс: GMT



Вы не можете начинать темы
Вы не можете отвечать на сообщения
Вы не можете редактировать свои сообщения
Вы не можете удалять свои сообщения
Вы не можете голосовать в опросах
Вы не можете прикреплять файлы к сообщениям
Вы не можете скачивать файлы