Макбет / Macbeth (2015) BDRip 1080p | iTunes

 
Автор Сообщение

достали все ®

Пол:

Стаж: 1 год 8 месяцев

Сообщений: 6570



Награды: 12 (Подробнее)

За внесенный вклад в развитие сайта (Количество: 1) Top Releaser 2 (Количество: 1) Mega Seeder 5 (Количество: 1)
Торрент-статистика

Создавать темы 15-Фев-2016 03:54

[Цитировать]

Информация о фильме
Название: Макбет
Оригинальное название: Macbeth
Жанр: драма, военный
Год выпуска: 2015
Режиссер: Джастин Курзель
В ролях: Майкл Фассбендер, Марион Котийяр, Пэдди Консидайн, Шон Харрис, Джек Рейнор, Элизабет Дебики, Дэвид Тьюлис, Росс Андерсон, Дэвид Хейман, Морис Роевз
Описание: Холодные поля Шотландии, военный лагерь, всегда готовый переместиться в другое место. Макбет всегда на войне, его жена, недавно потерявшая ребенка, боится потерять еще и мужа. Чтобы удержать его рядом, она начинает свой проект по устранению конкурентов в борьбе за королевскую корону.

Выпущено: Великобритания, Франция, США / Anton Capital Entertainment (ACE), Creative Scotland, DMC Film, Film 4, See-Saw Films, Studio Canal
Продолжительность: 01:52:52
Озвучивание: Дублированное (iTunes)
Файл
Качество: BDRip 720p
Видео: 1920х804, 24 fps, AVC ~7988 kbps avg
Аудио#1: 48 kHz, AC3, 3/2 (L,C,R,l,r) + LFE ch, ~384 kbps avg - дубляж
Аудио#2: 48 kHz, AC3, 3/2 (L,C,R,l,r) + LFE ch, ~640 kbps avg - оригинал
Субтитры: английские

МедиаИнфо

Формат : Matroska
Версия формата : Version 2
Размер файла : 7,10 Гбайт
Продолжительность : 1 ч. 52 м.
Общий поток : 9011 Кбит/сек
Название фильма : ~V ad~
Дата кодирования : UTC 2016-02-15 00:19:08
Программа кодирования : mkvmerge v6.5.0 ('Isn't she lovely') built on Oct 20 2013 12:50:05
Библиотека кодирования : libebml v1.3.0 + libmatroska v1.4.1
Attachements : cover.jpg
Видео
Идентификатор : 1
Формат : AVC
Формат/Информация : Advanced Video Codec
Профиль формата : High@L4.1
Параметр CABAC формата : Да
Параметр ReFrames формата : 5 кадров
Идентификатор кодека : V_MPEG4/ISO/AVC
Продолжительность : 1 ч. 52 м.
Битрейт : 7988 Кбит/сек
Ширина : 1920 пикселей
Высота : 804 пикселя
Соотношение сторон : 2,40:1
Режим частоты кадров : Постоянный
Частота кадров : 24,000 кадра/сек
Цветовое пространство : YUV
Субдискретизация насыщенности : 4:2:0
Битовая глубина : 8 бит
Тип развёртки : Прогрессивная
Бит/(Пиксели*Кадры) : 0.216
Размер потока : 6,16 Гбайт (87%)
Заголовок : ~V~
Библиотека кодирования : x264 core 148 r2579 73ae2d1
Настройки программы : cabac=1 / ref=5 / deblock=1:-3:-3 / analyse=0x3:0x133 / me=umh / subme=11 / psy=1 / psy_rd=1.00:0.00 / mixed_ref=1 / me_range=32 / chroma_me=1 / trellis=2 / 8x8dct=1 / cqm=0 / deadzone=21,11 / fast_pskip=0 / chroma_qp_offset=-2 / threads=12 / lookahead_threads=1 / sliced_threads=0 / nr=0 / decimate=0 / interlaced=0 / bluray_compat=0 / constrained_intra=0 / bframes=11 / b_pyramid=2 / b_adapt=2 / b_bias=0 / direct=3 / weightb=1 / open_gop=0 / weightp=2 / keyint=240 / keyint_min=24 / scenecut=40 / intra_refresh=0 / rc=2pass / mbtree=0 / bitrate=7988 / ratetol=1.0 / qcomp=0.60 / qpmin=0 / qpmax=69 / qpstep=4 / cplxblur=20.0 / qblur=0.5 / ip_ratio=1.30 / pb_ratio=1.24 / aq=3:0.70
Язык : English
Default : Да
Forced : Нет
Аудио #1
Идентификатор : 2
Формат : AC-3
Формат/Информация : Audio Coding 3
Расширение режима : CM (complete main)
Параметр Endianness формата : Big
Идентификатор кодека : A_AC3
Продолжительность : 1 ч. 52 м.
Вид битрейта : Постоянный
Битрейт : 384 Кбит/сек
Каналы : 6 каналов
Расположение каналов : Front: L C R, Side: L R, LFE
Частота : 48,0 КГц
Метод сжатия : С потерями
Размер потока : 310 Мбайт (4%)
Заголовок : iTunes
Язык : Russian
Default : Да
Forced : Да
Аудио #2
Идентификатор : 3
Формат : AC-3
Формат/Информация : Audio Coding 3
Расширение режима : CM (complete main)
Параметр Endianness формата : Big
Идентификатор кодека : A_AC3
Продолжительность : 1 ч. 52 м.
Вид битрейта : Постоянный
Битрейт : 640 Кбит/сек
Каналы : 6 каналов
Расположение каналов : Front: L C R, Side: L R, LFE
Частота : 48,0 КГц
Метод сжатия : С потерями
Размер потока : 517 Мбайт (7%)
Язык : English
Default : Нет
Forced : Нет
Текст #1
Идентификатор : 4
Формат : UTF-8
Идентификатор кодека : S_TEXT/UTF8
Идентификатор кодека/Информация : UTF-8 Plain Text
Заголовок : Full
Язык : English
Default : Нет
Forced : Нет
Текст #2
Идентификатор : 5
Формат : UTF-8
Идентификатор кодека : S_TEXT/UTF8
Идентификатор кодека/Информация : UTF-8 Plain Text
Заголовок : SDH
Язык : English
Default : Нет
Forced : Нет
Меню
00:00:00.000 : en:Chapter 01
00:09:44.416 : en:Chapter 02
00:18:19.375 : en:Chapter 03
00:33:11.166 : en:Chapter 04
00:42:30.583 : en:Chapter 05
00:51:18.000 : en:Chapter 06
01:00:19.208 : en:Chapter 07
01:11:23.083 : en:Chapter 08
01:16:26.041 : en:Chapter 09
01:26:24.541 : en:Chapter 10
01:33:59.875 : en:Chapter 11
01:46:27.541 : en:Chapter 12

х264

x264 [info]: frame I:952 Avg QP:13.13 size:182668
x264 [info]: frame P:31968 Avg QP:15.54 size: 72203
x264 [info]: frame B:129619 Avg QP:17.20 size: 32996

Скриншоты


Сэмпл
[Профиль] [ЛС]
Показать сообщения:    

Текущее время: Сегодня 12:43

Часовой пояс: GMT



Вы не можете начинать темы
Вы не можете отвечать на сообщения
Вы не можете редактировать свои сообщения
Вы не можете удалять свои сообщения
Вы не можете голосовать в опросах
Вы не можете прикреплять файлы к сообщениям
Вы не можете скачивать файлы