Макбет / Macbeth (2015) BDRip-AVC | Чистый звук

 
Автор Сообщение

достали все ®

Пол:

Стаж: 1 год 8 месяцев

Сообщений: 6571



Награды: 12 (Подробнее)

Mega Seeder 4 (Количество: 1) Mega Releaser 3 (Количество: 1) За внесенный вклад в развитие сайта (Количество: 1)
Торрент-статистика

Создавать темы 29-Янв-2016 14:37

[Цитировать]

Информация о фильме
Название: Макбет
Оригинальное название: Macbeth
Год выпуска: 2015
Страна: Великобритания, Франция, США
Жанр: драма, военный-Перевод: Дубляж - [Чистый звук] Без рекламы
Продолжительность: 01:46:54-Режиссер: Джастин Курзель
В ролях: Майкл Фассбендер (Macbeth), Марион Котийяр (Lady Macbeth), Пэдди Консидайн (Banquo), Шон Харрис (Macduff), Джек Рейнор (Malcolm), Элизабет Дебики (Lady Macduff), Дэвид Тьюлис (Duncan), Росс Андерсон (Rosse), Дэвид Хейман (Lennox), Морис Роевз (Menteith), Хилтон МакРэй (Macdonwald), Сейлан Бакстер (Older Witch)-Описание:
Холодные поля Шотландии, военный лагерь, всегда готовый переместиться в другое место. Макбет всегда на войне, его жена, недавно потерявшая ребенка, боится потерять еще и мужа. Чтобы удержать его рядом, она начинает свой проект по устранению конкурентов в борьбе за королевскую корону.-Рейтинг:

MPAA: R - Лицам до 17 лет обязательно присутствие взрослого-Качество: BDRip-AVC
Формат: MKV
Видео: AVC, 1024x430 (2.40:1), 1470 kbps, 24 fps, 0,139 bpp
Аудио: AC3 / 2.0 / 48 kHz / 384 kbps / 16 bit
Семпл-Релиз от: by White Smoke Работа со звуком

ОтчетМедиаИнфо

General
Unique ID : 208275118231736120945080433111394459236 (0x9CB05424DA51BF28B8E6384613FC9E64)
Название : C:Макбет_Macbeth.2015.BDRip-AVC.Rip.by.White Smoke.R.G. Resident.mkv
Формат : Matroska
Формат version : Version 4 / Version 2
Размер файла : 1.46 GiB
Длительность : 1h 52mn
Общий Битрейт : 1 853 Kbps
Encoded date : UTC 2016-01-28 09:57:44
Создано приложением : mkvmerge v6.8.0 ('Theme for Great Cities') 64bit built on Mar 2 2014 21:34:26
Writing library : libebml v1.3.0 + libmatroska v1.4.1
Video
ID : 1
Формат : AVC
Формат/Info : Advanced Video Кодек
Формат profile : High@L4.1
Формат настройки, CABAC : Yes
Формат настройки, ReFrames : 12 frames
Кодек ID : V_MPEG4/ISO/AVC
Длительность : 1h 52mn
Битрейт : 1 470 Kbps
Width : 1 024 пикселей
Высота : 430 пикселей
Соотношение кадра : 2.40:1
Частота кадров : 24.000 fps
Цветопередача : YUV
Chroma subsampling : 4:2:0
Разрядность : 8 bits
Тип сканирования : Progressive
Bits/(Pixel*Frame) : 0.139
Размер потока : 1.13 GiB (77%)
Writing library : x264 core 148 r2638 7599210
Encoding настройки : cabac=1 / ref=12 / deblock=1:-2:-2 / analyse=0x3:0x113 / me=umh / subme=11 / psy=1 / psy_rd=1.00:0.00 / mixed_ref=1 / me_range=32 / chroma_me=1 / trellis=2 / 8x8dct=1 / cqm=0 / deadzone=21,11 / fast_pskip=1 / chroma_qp_offset=-2 / threads=6 / lookahead_threads=1 / sliced_threads=0 / nr=0 / decimate=1 / interlaced=0 / bluray_compat=0 / constrained_intra=0 / bframes=12 / b_pyramid=2 / b_adapt=2 / b_bias=10 / direct=1 / weightb=0 / open_gop=0 / weightp=2 / keyint=230 / keyint_min=24 / scenecut=40 / intra_refresh=0 / rc_lookahead=40 / rc=2pass / mbtree=1 / bitrate=1470 / ratetol=1.0 / qcomp=0.85 / qpmin=0 / qpmax=69 / qpstep=4 / cplxblur=20.0 / qblur=0.5 / ip_ratio=1.40 / aq=1:1.00
Язык : English
Default : Yes
Forced : No
Audio
ID : 2
Формат : AC-3
Формат/Info : Audio Coding 3
Расширение режима : CM (complete main)
Кодек ID : A_AC3
Длительность : 1h 52mn
Битрейт mode : Constant
Битрейт : 384 Kbps
Channel(s) : 2 канала
Channel positions : Front: L R
Частота : 48.0 KHz
Разрядность : 16 bits
Режим сжатия : Lossy
Размер потока : 310 MiB (21%)
Default : Yes
Forced : No

Скриншоты

[Профиль] [ЛС]
Показать сообщения:    

Текущее время: Сегодня 16:41

Часовой пояс: GMT



Вы не можете начинать темы
Вы не можете отвечать на сообщения
Вы не можете редактировать свои сообщения
Вы не можете удалять свои сообщения
Вы не можете голосовать в опросах
Вы не можете прикреплять файлы к сообщениям
Вы не можете скачивать файлы