Майя / Maya (Михал Бат-Адам / Michal Bat-Adam) [2010, Израиль, Драма, DVDRip] + Sub Rus + Original Heb

 
Автор Сообщение

painkiller ®

Стаж: 2 года 3 месяца

Сообщений: 582



Награды: Нет

Торрент-статистика

Создавать темы 20-Авг-2014 06:09

[Цитировать]

Майя / Maya
Страна: Израиль
Жанр: Драма
Год выпуска: 2010
Продолжительность: 01:28:36
Перевод: Субтитры
Cубтитры: русские (softsub), иврит (hardsub)
Оригинальная аудиодорожка: иврит
Режиссер: Михал Бат-Адам / Michal Bat-Adam
В ролях: Лирон Бен-Шлуш, Джил Фрэнк, Адди Каплан
Описание: Майя, девушка из поселения на юге страны, приезжает в Тель-Авив, чтобы осуществить мечту - стать актрисой. Неудачи преследуют её. Она, отчаявшись, решает отказаться от своих планов и вернуться домой. Но, встреча с известным режиссёром меняет её судьбу. Режиссёр, угадавший незаурядный талант Майи, берёт её на главную роль в пьесе, которую он написал и готовится поставить.
У героини пьесы был школьный роман, но родители заставили её сделать аборт. Это так потрясло девушку, что она уверена: у неё отняли ребёнка и где-то спрятали.
Доп. информация: КиноПоиск, IMDb
Сэмпл: https://www.mediafire.com/?dblhrys1u12kyq6
Качество видео: DVDRip
Формат видео: AVI
Видео: Xvid 720х416 25 кадров/сек 2088 Кбит/сек
Аудио: MP3 48 КГц 2 канала 128 Кбит/сек
Формат субтитров: softsub (ASS)

Образец субтитров

Dialogue: 0,0:12:43.57,0:12:47.09,Default,,0,0,0,,- А что с твоим прослушиванием на этой неделе?\N- Я не пойду.
Dialogue: 0,0:12:47.53,0:12:49.04,Default,,0,0,0,,Конечно же, ты пойдёшь.
Dialogue: 0,0:12:52.25,0:12:54.32,Default,,0,0,0,,Тебя будет слушать Хагаи Цафрир,\Nи ты не пойдёшь?
Dialogue: 0,0:12:54.53,0:12:55.93,Default,,0,0,0,,Ты слышишь, что говоришь?
Dialogue: 0,0:12:56.37,0:12:58.33,Default,,0,0,0,,Он сейчас гений театра.
Dialogue: 0,0:13:04.29,0:13:06.28,Default,,0,0,0,,Мне кажется, я беременна.
Dialogue: 0,0:13:10.77,0:13:14.16,Default,,0,0,0,,- Так, что ты будешь делать, аборт?\N- С ума сошла? С анестезией?
Dialogue: 0,0:13:15.37,0:13:17.49,Default,,0,0,0,,Так что, будешь растить ребёнка без отца?
Dialogue: 0,0:13:17.73,0:13:19.40,Default,,0,0,0,,Может быть, он оставит жену.
Dialogue: 0,0:13:19.61,0:13:21.41,Default,,0,0,0,,Если бы это была пьеса, то сейчас ты бы добавила:
Dialogue: 0,0:13:21.61,0:13:23.81,Default,,0,0,0,,"Майя, сдержись, попытайся не рассмеяться."
Dialogue: 0,0:13:24.01,0:13:26.37,Default,,0,0,0,,Нурит, сдержись, попытайся не разреветься.
Dialogue: 0,0:13:29.65,0:13:31.45,Default,,0,0,0,,Может быть, это просто задержка.
Dialogue: 0,0:13:31.93,0:13:33.52,Default,,0,0,0,,Нет. Это не задержка.
Dialogue: 0,0:13:34.53,0:13:36.20,Default,,0,0,0,,Я помогу тебе растить малыша.
Dialogue: 0,0:13:41.45,0:13:43.20,Default,,0,0,0,,Ты думаешь, он любит меня?
Dialogue: 0,0:13:45.77,0:13:47.44,Default,,0,0,0,,Тогда, почему он со мной?
Dialogue: 0,0:13:47.85,0:13:49.41,Default,,0,0,0,,А почему нет?
Dialogue: 0,0:13:49.61,0:13:52.13,Default,,0,0,0,,Бесплатный секс, бесплатный кофе.
Dialogue: 0,0:13:52.33,0:13:55.05,Default,,0,0,0,,Позавчера он ещё съел все бананы,\Nкоторые я купила.
Dialogue: 0,0:13:55.25,0:13:59.13,Default,,0,0,0,,Да, я знаю. После того, как кончает,\Nон должен съесть что-нибудь.
Dialogue: 0,0:13:59.33,0:14:01.29,Default,,0,0,0,,Так, пусть приносит бутерброды из дома.

MediaInfo

Общее
Полное имя : Maya 2010.avi
Формат : AVI
Формат/Информация : Audio Video Interleave
Размер файла : 1,37 Гбайт
Продолжительность : 1 ч. 28 м.
Режим общего битрейта : Переменный
Общий поток : 2209 Кбит/сек
Программа кодирования : VirtualDubMod 1.5.10.2 (build 2542/release)
Библиотека кодирования : VirtualDubMod build 2542/release
Видео
Идентификатор : 0
Формат : MPEG-4 Visual
Профиль формата : Advanced Simple@L5
Параметр BVOP формата : 1
Параметр QPel формата : Нет
Параметр GMC формата : Без точки перехода
Параметр матрицы формата : Default (H.263)
Режим смешивания : Сжатый битовый поток
Идентификатор кодека : XVID
Идентификатор кодека/Подсказка : XviD
Продолжительность : 1 ч. 28 м.
Битрейт : 2088 Кбит/сек
Ширина : 720 пикселей
Высота : 416 пикселей
Соотношение сторон : 1,731
Частота кадров : 25,000 кадров/сек
Цветовое пространство : YUV
Субдискретизация насыщенности : 4:2:0
Битовая глубина : 8 бит
Тип развёртки : Прогрессивная
Метод сжатия : С потерями
Бит/(Пиксели*Кадры) : 0.279
Размер потока : 1,29 Гбайт (94%)
Библиотека кодирования : XviD 1.2.1 (UTC 2008-12-04)
Аудио
Идентификатор : 1
Формат : MPEG Audio
Версия формата : Version 1
Профиль формата : Layer 3
Режим : Joint stereo
Расширение режима : MS Stereo
Идентификатор кодека : 55
Идентификатор кодека/Подсказка : MP3
Продолжительность : 1 ч. 28 м.
Вид битрейта : Переменный
Битрейт : 109 Кбит/сек
Номинальный битрейт : 128 Кбит/сек
Каналы : 2 канала
Частота : 48,0 КГц
Метод сжатия : С потерями
Размер потока : 68,9 Мбайт (5%)
Выравнивание : Соединение по промежуткам
Продолжительность промежутка : 24 мс. (0,60 видеокадр)
Время предзагрузки промежутка : 576 мс.
Библиотека кодирования : LAME3.98r
Настройки программы : -m j -V 4 -q 2 -lowpass 17 --abr 128

Скриншот c названием фильма

Скриншоты

[Профиль] [ЛС]

Создавать темы 06-Авг-2015 23:06 (спустя 11 месяцев 17 дней)

Топик был перенесен из форума Фильмы до 2014 года в форум Фильмы до 2012 года
sergej644
 

Создавать темы 12-Июн-2016 07:54 (спустя 1 год 9 месяцев)

Топик был перенесен из форума Фильмы 2011 года в форум Фильмы 2010 года
Russian Mafia
 
Показать сообщения:    

Текущее время: Сегодня 05:01

Часовой пояс: GMT



Вы не можете начинать темы
Вы не можете отвечать на сообщения
Вы не можете редактировать свои сообщения
Вы не можете удалять свои сообщения
Вы не можете голосовать в опросах
Вы не можете прикреплять файлы к сообщениям
Вы не можете скачивать файлы