Майя. Рождение легенды / Maya. Birth of a legend [серия 2 из 2] (Chul Lim) [2012 г., Документальный, история, SATRip]

 
Автор Сообщение

skorpionN ®

Пол:

Стаж: 1 год 8 месяцев

Сообщений: 586



Награды: 4 (Подробнее)

Mega Seeder 3 (Количество: 1) Mega Seeder 2 (Количество: 1) Mega Seeder 1 (Количество: 1)
Торрент-статистика

Создавать темы 04-Апр-2015 13:02

[Цитировать]

Майя. Рождение легенды / Maya. Birth of a legend [серия 2 из 2]
Год выпуска: 2012
Страна: Корея, Educational Broadcasting System (EBS)
Жанр: Документальный, история
Продолжительность: 00:44:03
Перевод: Профессиональный (двухголосый) - компания Видеофильм ТВ
Режиссер: Chul Lim
Описание:
Ма́йя — цивилизация Мезоамерики, известная благодаря своей письменности, искусству, архитектуре, математической и астрономической системам. Начало её формирования относят к предклассической эре (2000 г. до н. э. — 250 г. н. э.), большинство городов майя достигло пика своего развития в классический период (250—900 гг. н. э.). К моменту прибытия конкистадоров была в глубоком упадке. Майя строили каменные города, многие из которых были покинуты задолго до прихода европейцев, другие были обитаемы и после. Календарь, разработанный майя, использовали и другие народы Центральной Америки. Применялась иероглифическая система письма, частично расшифрованная. Сохранились многочисленные надписи на памятниках. Создали эффективную систему земледелия, имели глубокие знания в области астрономии. Потомками древних майя являются не только современные народы майя, сохранившие язык предков, но и часть испаноязычного населения южных штатов Мексики, Гватемалы, Гондураса. Некоторые города майя включены ЮНЕСКО в список объектов Всемирного наследия: Паленке, Чичен-Ица, Ушмаль в Мексике, Тикаль и Киригуа в Гватемале, Копан в Гондурасе, Хойя-де-Серен в Сальвадоре — небольшая деревня майя, которая была погребена под вулканическим пеплом и сейчас раскопана.
01. В поисках маисовой цивилизации / In search of maize civilization
02. Календарь Цолькин / Tzolkin Calendar

Качество: SATRip
Формат: AVI
Видео кодек: XviD
Аудио кодек: AC3
Видео: 720x400 25fps 1798kbps
Аудио: AC3 2ch, 48kHz, 192 kbps

Скриншоты


MediaInfo:

Format : AVI
Format/Info : Audio Video Interleave
File size : 630 MiB
Duration : 44mn 3s
Overall bit rate : 1 998 Kbps
Writing application : TMPGEnc Video Mastering Works 5 Version. 5.0.6.38
Writing library : TMPGEnc Video Mastering Works 5 Version. 5.0.6.38
Video
ID : 0
Format : MPEG-4 Visual
Format profile : Advanced Simple@L5
Format settings, BVOP : 2
Format settings, QPel : No
Format settings, GMC : No warppoints
Format settings, Matrix : Default (H.263)
Muxing mode : Packed bitstream
Codec ID : XVID
Codec ID/Hint : XviD
Duration : 44mn 3s
Bit rate : 1 799 Kbps
Width : 720 pixels
Height : 400 pixels
Display aspect ratio : 16:9
Frame rate : 25.000 fps
Color space : YUV
Chroma subsampling : 4:2:0
Bit depth : 8 bits
Scan type : Progressive
Compression mode : Lossy
Bits/(Pixel*Frame) : 0.250
Stream size : 567 MiB (90%)
Writing library : XviD 73
Audio
ID : 1
Format : AC-3
Format/Info : Audio Coding 3
Mode extension : CM (complete main)
Format settings, Endianness : Big
Codec ID : 2000
Duration : 44mn 2s
Bit rate mode : Constant
Bit rate : 192 Kbps
Channel(s) : 2 channels
Channel positions : Front: L R
Sampling rate : 48.0 KHz
Bit depth : 16 bits
Compression mode : Lossy
Stream size : 60.5 MiB (10%)
Alignment : Aligned on interleaves
Interleave, duration : 240 ms (6.00 video frames)
Interleave, preload duration : 224 ms

Внимание! Раздача ведётся путём добавления новых выпусков

Внимание! Раздача ведётся путём добавления новых выпусков; при каждом добавлении создаётся новый торрент. Чтобы начать докачку нового выпуска, пользователям необходимо сделать следующее:
(1) остановить скачивание,
(2) удалить старый торрент у себя из клиента (старые серии удалять не надо),
(3) скачать новый торрент и запустить его у себя в клиенте вместо старого, при этом указать клиенту путь в старую папку куда и должно происходить скачивание новых выпусков.
Ваш клиент при этом должен произвести хеширование (проверку) старой папки (если не производит сам - помогите ему сделать это). В результате он будет докачивать только те выпуски, которых у Вас ещё нет. Старые выпуски при этом не удаляются, а продолжают раздаваться!
Eсли Вы уже удалили старые выпуски, то предотвратить их повторную закачку можно, сняв галочки в соответствующих местах при запуске нового торрента. По возможности, желательно не удалять старые выпуски как можно дольше, чтобы релизёр не только продолжал раздавать старые выпуски, но и смог сконцентрироваться на новых.
Добавлена серия 01. В поисках маисовой цивилизации / In search of maize civilization


Последний раз редактировалось: skorpionN (2015-04-08 08:26), всего редактировалось 5 раз(а)
[Профиль] [ЛС]

KiruhaDelMar

Стаж: 1 год 8 месяцев

Сообщений: 246



Награды: Нет

Торрент-статистика

Создавать темы 04-Апр-2015 13:26 (спустя 24 минуты)

[Цитировать]

Я про этих Майя знаю больше чем про соседку, а про соседку знаю очень много bm даже можно сказать слишком много
16:50 Гений (Задавая главные вопросы)
[Профиль] [ЛС]

skorpionN ®

Пол:

Стаж: 1 год 8 месяцев

Сообщений: 586



Награды: 4 (Подробнее)

Mega Seeder 3 (Количество: 1) Mega Seeder 1 (Количество: 1) Top Releaser 2 (Количество: 1)
Торрент-статистика

Создавать темы 04-Апр-2015 14:14 (спустя 47 минут)

[Цитировать]

У меня другой план сейчас.
[Профиль] [ЛС]

KiruhaDelMar

Стаж: 1 год 8 месяцев

Сообщений: 246



Награды: Нет

Торрент-статистика

Создавать темы 04-Апр-2015 14:51 (спустя 37 минут)

[Цитировать]

афганка ?
[Профиль] [ЛС]
Кто просматривает тему:

Показать сообщения:    

Текущее время: Сегодня 14:53

Часовой пояс: GMT



Вы не можете начинать темы
Вы не можете отвечать на сообщения
Вы не можете редактировать свои сообщения
Вы не можете удалять свои сообщения
Вы не можете голосовать в опросах
Вы не можете прикреплять файлы к сообщениям
Вы не можете скачивать файлы