Майский дождь (Иван Сидоров) [2012, Россия, Мелодрама, комедия, HDTV 1080i]

 
Автор Сообщение

TorrentFilm ®

Пол:

Стаж: 2 года

Сообщений: 7741



Награды: Нет

Торрент-статистика

Создавать темы 01-Янв-2016 00:13

[Цитировать]

Майский дождь
Страна: Россия
Жанр: Мелодрама, комедия
Год выпуска: 2012
Продолжительность: 01:26:22
Перевод: Не требуется
Cубтитры: нет
Режиссер: Иван Сидоров
В ролях: Артём Ткаченко, Ирина Таранник, Данила Дунаев, Равшана Куркова, Антон Васильев, Владимир Фекленко, Светлана Колпакова, Игорь Филиппов, Александра Волкова, Евгений Рябов, Алена Чехова, Иван Косичкин, Даниил Эйдлин, Александр Селиверстов, Егор Долгополов, Дмитрий Скачков, Дмитрий Попов, Сергей Метёлкин, Алина Ольшанская, Екатерина Кузнецова и другие.
Описание: В жизни Ольги происходит то самое событие, которого все девушки ждут годами: Марк делает ей предложение. Всё происходит, как положено: розы, шампанское, назначение точной даты свадьбы, планы путешествия, мысли о будущих детях. Но вдруг романтику момента нарушают удары в стену: недавно переехавший сосед устроил очередную вечеринку. «Сколько это может продолжаться?» — сетуют Ольга и Марк. И тут Ольге приходит в голову идея...
Сэмпл: http://multi-up.com/861271
Тип релиза: HDTV 1080i
Контейнер: TS
Доп. информация: Релиз -

Рип чистый. Без посторонних надписей. Выкладывается как есть.
Видео кодек: AVC
Аудио кодек: MP2
Видео: 1920x1080 (16:9) 25.000 fps 7 853 Kbps, 0.151 bit/pixel
Аудио: MPEG Audio 48000Hz stereo 192 Кбит/сек

Скриншоты


Скриншот с названием фильма

MI

GeneralID : 1 (0x1)Complete name : J:\ВЫКЛАДКА\HDTV\Фильмы\Майский дождь (2012, Мелодрама, Комедия HDTV) (MYDIMKA).tsFormat : MPEG-TSFile size : 5.09 GiBDuration : 1h 26mnOverall bit rate mode : VariableOverall bit rate : 8 442 Kbps
VideoID : 2911 (0xB5F)Menu ID : 1 (0x1)Format : AVCFormat/Info : Advanced Video CodecFormat profile : High@L4.0Format settings, CABAC : YesFormat settings, ReFrames : 3 framesCodec ID : 27Duration : 1h 26mnBit rate : 7 831 KbpsWidth : 1 920 pixelsHeight : 1 080 pixelsDisplay aspect ratio : 16:9Frame rate : 25.000 fpsColor space : YUVChroma subsampling : 4:2:0Bit depth : 8 bitsScan type : MBAFFBits/(Pixel*Frame) : 0.151Stream size : 4.72 GiB (93%)
AudioID : 2912 (0xB60)Menu ID : 1 (0x1)Format : MPEG AudioFormat version : Version 1Format profile : Layer 2Mode : Joint stereoMode extension : Intensity Stereo + MS StereoCodec ID : 3Duration : 1h 26mnBit rate mode : ConstantBit rate : 192 KbpsChannel(s) : 2 channelsSampling rate : 48.0 KHzCompression mode : LossyStream size : 118 MiB (2%)Language : Russian
[Профиль] [ЛС]
Показать сообщения:    

Текущее время: Сегодня 16:40

Часовой пояс: GMT



Вы не можете начинать темы
Вы не можете отвечать на сообщения
Вы не можете редактировать свои сообщения
Вы не можете удалять свои сообщения
Вы не можете голосовать в опросах
Вы не можете прикреплять файлы к сообщениям
Вы не можете скачивать файлы