Майский дождь (Иван Сидоров) [2012, Россия, мелодрама, комедия, HDTVRip 720p]

 
Автор Сообщение

reversefile ®

Пол:

Стаж: 4 года 5 месяцев

Сообщений: 842

Откуда: ReverseFile.org



Награды: Нет

Торрент-статистика

Создавать темы 13-Авг-2014 18:26

[Цитировать]

Майский дождь
Выпущено: Россия, Про100 Фильм
Жанр: мелодрама, комедия
Год выпуска: 2012
Продолжительность: 01:26:15
Субтитры: нет
Режиссер: Иван Сидоров
В ролях: Артём Ткаченко, Ирина Таранник, Данила Дунаев, Равшана Куркова, Антон Васильев, Владимир Фекленко, Светлана Колпакова, Игорь Филиппов, Александра Волкова, Евгений Рябов, Алена Чехова, Иван Косичкин, Даниил Эйдлин
Описание: В жизни Ольги происходит то самое событие, которого все девушки ждут годами: Марк делает ей предложение. Всё происходит, как положено: розы, шампанское, назначение точной даты свадьбы, планы путешествия, мысли о будущих детях. Но вдруг романтику момента нарушают удары в стену: недавно переехавший сосед устроил очередную вечеринку. «Сколько это может продолжаться?» — сетуют Ольга и Марк. И тут Ольге приходит в голову идея...

Автор рипа / записи: fanatus
Исходник: Запись с телеканала РОССИЯ HD
Качество: HDTVRip 720p
Формат: MKV
Видео кодек: H.264
Аудио кодек: AC3
Видео: MPEG-4 AVC, 5030 kbps , 1280x720 (16:9), 25.000 fps, 0.218 bit/pixel
Аудио: AC3, 2 ch, 48 kHz, 192 kbps

Доп. информация

MediaInfo

General
Unique ID : 178669116755083433912255923499300502772 (0x866A6B92DAF255CEAF08F9D55D5B3CF4)
Complete name : E:\Majskij_dozhd.2012.x264.HDTVRip.720p.fanatus.mkv
Format : Matroska
Format version : Version 2
File size : 3.14 GiB
Duration : 1h 26mn
Overall bit rate : 5 219 Kbps
Movie name : Majskij dozhd (2012) - fanatus
Encoded date : UTC 2014-06-22 04:28:32
Writing application : mkvmerge v3.4.0 ('Rapunzel') сборка от May 15 2010 09:38:20
Writing library : libebml v0.8.0 + libmatroska v0.9.0
Video
ID : 1
Format : AVC
Format/Info : Advanced Video Codec
Format profile : High@L4.1
Format settings, CABAC : Yes
Format settings, ReFrames : 9 frames
Codec ID : V_MPEG4/ISO/AVC
Duration : 1h 26mn
Bit rate : 5 030 Kbps
Width : 1 280 pixels
Height : 720 pixels
Display aspect ratio : 16:9
Frame rate : 25.000 fps
Color space : YUV
Chroma subsampling : 4:2:0
Bit depth : 8 bits
Scan type : Progressive
Bits/(Pixel*Frame) : 0.218
Stream size : 2.97 GiB (94%)
Title : Majskij dozhd (2012) HDTVRip_720p
Writing library : x264 core 142 r2431 ac76440
Encoding settings : cabac=1 / ref=9 / deblock=1:-3:-3 / analyse=0x3:0x113 / me=umh / subme=11 / psy=1 / psy_rd=1.00:0.05 / mixed_ref=1 / me_range=48 / chroma_me=1 / trellis=2 / 8x8dct=1 / cqm=0 / deadzone=21,11 / fast_pskip=0 / chroma_qp_offset=-3 / threads=16 / lookahead_threads=4 / sliced_threads=0 / nr=0 / decimate=0 / interlaced=0 / bluray_compat=0 / constrained_intra=0 / bframes=10 / b_pyramid=2 / b_adapt=2 / b_bias=0 / direct=3 / weightb=1 / open_gop=0 / weightp=2 / keyint=250 / keyint_min=25 / scenecut=40 / intra_refresh=0 / rc=2pass / mbtree=0 / bitrate=5030 / ratetol=1.0 / qcomp=0.65 / qpmin=0 / qpmax=69 / qpstep=4 / cplxblur=20.0 / qblur=0.5 / ip_ratio=1.40 / pb_ratio=1.30 / aq=1:0.80
Language : Russian
Default : Yes
Forced : No
Audio
ID : 2
Format : AC-3
Format/Info : Audio Coding 3
Mode extension : CM (complete main)
Format settings, Endianness : Big
Codec ID : A_AC3
Duration : 1h 26mn
Bit rate mode : Constant
Bit rate : 192 Kbps
Channel(s) : 2 channels
Channel positions : Front: L R
Sampling rate : 48.0 KHz
Bit depth : 16 bits
Compression mode : Lossy
Stream size : 118 MiB (4%)
Language : Russian
Default : Yes
Forced : No

Скриншот c названием фильма

Скриншоты

[Профиль] [ЛС]
Показать сообщения:    

Текущее время: Сегодня 14:29

Часовой пояс: GMT



Вы не можете начинать темы
Вы не можете отвечать на сообщения
Вы не можете редактировать свои сообщения
Вы не можете удалять свои сообщения
Вы не можете голосовать в опросах
Вы не можете прикреплять файлы к сообщениям
Вы не можете скачивать файлы