Майлз с другой планеты / Miles from Tomorrowland [s01 + бонусы] (2015) WEBRip от -merci- | D

 
Автор Сообщение

достали все ®

Пол:

Стаж: 1 год 8 месяцев

Сообщений: 6545



Награды: 12 (Подробнее)

За внесенный вклад в развитие сайта (Количество: 1) Mega Seeder 4 (Количество: 1) Mega Releaser 1 (Количество: 1)
Торрент-статистика

Создавать темы 18-Апр-2016 04:05

[Цитировать]

Информация о фильме
Название: Майлз с другой планеты (Майлз с планеты будущего)
Оригинальное название: Miles from Tomorrowland
Год выхода: 2015
Страна: США, Disney
Жанр: мультфильм, фантастика, приключения, семейный
Продолжительность: 30 x ~ 00:23:06, 9 x ~ 00:00:57
Перевод: Профессиональный (дублированный)
Режиссеры: Пол Димайер, Сью Перротто, Джон Энг, ...
Роли озвучивали: Оливия Манн, Каллен МакКарти, Фиона Бишоп, Ди Брэдли Бейкер, Том Кенни, Грэй Гриффин, Дидрих Бадер, Дэнни Джейкобс, Сэм Лаваньино, Этан Вакер, ...
Роли дублировали: Елена Шульман, Владимир Войтюк, Василиса Эльдарова, Алексей Черных, Анна Киселева, ...
О фильме:
Знакомьтесь с юным любителем приключений Майлзом Каллисто и его необычной семьей! Мама парнишки — пилот космического корабля, папа — инженер-механик, а старшая сестра — настоящая всезнайка в области различных технологий. Вместе с ними и домашним питомцем, роботом-страусом Мёрком, Майлз путешествует по просторам вселенной и исследует неизведанные миры. В эпизодах познавательного мультсериала юных телезрителей ждут удивительные открытия!

Содержание:

1 сезон (США):
01 эпизод - 6 февраля 2015
29 эпизод - 4 декабря 2015

s1e01. Сбежавший шаттл + Катание в водовороте / Runaway Shuttle + Surfin' the Whirlpool
s1e02. Океан в движении + Обмен Исследователей / Ocean in Motion + Explorer Exchange
s1e03. Сыграем + Как я спас свои летние каникулы / Game On + How I Saved My Summer Vacation
s1e04. Путешествие на Ледяную планету + Атака фликораксов / Journey to the Frozen Planet + Attack of the Flickorax
s1e05. Поймай биту! + Супер-Мёрк / Catch That IOTA! + Mighty Merc
s1e06. Кто украл Стеллосферу + Игра в мяч / Who Stole the Stellosphere? + Rock N' Roll
s1e07. С днём капитана + Планета растений / Happy Captain's Day + Planet of the Plants
s1e08. Уменьшенные + Катание с кварконами / Downsized + Ride of the Quarkons
s1e09. В зону Златовласки + Заминка в плане / To the Goldilocks Zone + Hiccup in the Plan
s1e10. Полиция начеку + Захватчик корабля / On Spaceguard + Spaceship Invader
s1e11. Приключения с домашними роботами + Погоня за бластбордом / Adventures in Robo-Pet Sitting + The Great Blastboard Chase
s1e12. Отключенные + Замусоренные / Unplugged + Junked
s1e13. Мама-Мёрк + Космическая гонка / Mama Merc + Space Race
s1e14. Приключения на Нептуне + Глаза в глаза / The Neptune Adventure + Eye to Eye
s1e15. День Юрия + Я, Стелла / Yuri's Night + I, Stella
s1e16. Замороженная еда + Пока, мультилифт / Frozen Food + Later, Multivator
s1e17. Лунный Новый Год + Дневники ховербайкера / Lunar New Year + The Hoverbike Diaries
s1e18. Поиск Скеллинга Ро + Вид под угрозой / The Search for Skellig Ro + Endangered Species
s1e19. Взрыв астероида + Магнитный Мёрк / Blasteroid + Magnetic Merc
s1e20. Растущая проблема + Приключения тихоходки / A Growing Problem + The Tardigrade Escapade
s1e21. Майлз против вулкана + Охотники на Марсе / Miles vs. the Volcano + Scavengers of Mars
s1e22. Неожиданный союзник + Седьмое небо / Unexpected Ally + Skyrise
s1e23. Луна с привидениями + Страшная ночь в Темной Туманности / Ghost Moon + Stormy Night in a Dark Nebula
s1e24. Мир динозавров + Команда Экзо-Флекс / Dino World + Team Exo-Flex
s1e25. Спасение Плутона + Захват солнечного экспресса / The Pluto Rescue + The Taking of the Solar Express
s1e26. Космический торговец + Квантовый кубок / The Space Trader + The Quantum Cup
27. Легенда о Змеельве + Загадка Атлантикс / The Legend of Sandelion + The Mystery of Atlantix
28. Побег со станции Тето + Автостопом по Галактике / Escape From the Tethoscape + The Hitchhiker's Ride Through the Galaxy

s1e29. Исследовательская экспедиция + Снежный шар / The Discovery Expedition + Snow Globe
s1e30. Галактек. Секреты черной дыры / Galatech. Secrets of the Black Hole
-Доп. информация: Бонусы "Послания Майлза", где Майлз подробно рассказывает о правилах для космических путешественников.
Русский видеоряд (RUS). Серии перенумерованы по хронологии выхода в США.

Официальный сайт / Семпл-Файл
Формат: AVI
Качество: WEBRip
Видео: 720x400 (1.80:1), 25 fps, XviD build 65 ~1200 kbps avg, 0.17 bit/pixel
Звук: 48 kHz, AC3 Dolby Digital, 2/0 (L,R) ch, ~192.00 kbps avg
Субтитры: нет

MI

s1e07. С Днем Капитана + Планета растений. XviD.-merci-.avi
Format : AVI
Format/Info : Audio Video Interleave
File size : 232 MiB
Duration : 23mn 6s
Overall bit rate : 1 402 Kbps
Writing application : VirtualDubMod 1.5.10.3 | www.virtualdub-fr.org || (build 2550/release)
Writing library : VirtualDubMod build 2550/release
Video
ID : 0
Format : MPEG-4 Visual
Format profile : Advanced Simple@L5
Format settings, BVOP : 1
Format settings, QPel : No
Format settings, GMC : No warppoints
Format settings, Matrix : Default (MPEG)
Codec ID : XVID
Codec ID/Hint : XviD
Duration : 23mn 6s
Bit rate : 1 200 Kbps
Width : 720 pixels
Height : 400 pixels
Display aspect ratio : 16:9
Frame rate : 25.000 fps
Color space : YUV
Chroma subsampling : 4:2:0
Bit depth : 8 bits
Scan type : Progressive
Compression mode : Lossy
Bits/(Pixel*Frame) : 0.167
Stream size : 198 MiB (86%)
Writing library : XviD 65
Audio
ID : 1
Format : AC-3
Format/Info : Audio Coding 3
Mode extension : CM (complete main)
Format settings, Endianness : Big
Codec ID : 2000
Duration : 23mn 6s
Bit rate mode : Constant
Bit rate : 192 Kbps
Channel(s) : 2 channels
Channel positions : Front: L R
Sampling rate : 48.0 KHz
Frame rate : 31.250 fps (1536 spf)
Compression mode : Lossy
Stream size : 31.7 MiB (14%)
Alignment : Split accross interleaves
Interleave, duration : 40 ms (1.00 video frame)
Interleave, preload duratio : 500 ms

Скриншоты

Релиз от: -merci-Добавил эпизоды:
+ 24-26 - 11.04.2016
+ 27,28 - 14.04.2016
+ 30 - 18.04.2016

Full Complect
[Профиль] [ЛС]
Показать сообщения:    

Текущее время: Сегодня 12:35

Часовой пояс: GMT



Вы не можете начинать темы
Вы не можете отвечать на сообщения
Вы не можете редактировать свои сообщения
Вы не можете удалять свои сообщения
Вы не можете голосовать в опросах
Вы не можете прикреплять файлы к сообщениям
Вы не можете скачивать файлы