Майлз с другой планеты / Miles from Tomorrowlands[s01 + бонусы] (2015) WEBRip-AVC от -merci- | D

 
Автор Сообщение

достали все ®

Пол:

Стаж: 1 год 8 месяцев

Сообщений: 6613



Награды: 12 (Подробнее)

Mega Seeder 3 (Количество: 1) Mega Seeder 4 (Количество: 1) Mega Releaser 1 (Количество: 1)
Торрент-статистика

Создавать темы 15-Апр-2016 08:34

[Цитировать]

Информация о фильме
Название: Майлз с другой планеты (Майлз с планеты будущего)
Оригинальное название: Miles from Tomorrowland
Год выхода: 2015
Страна: США, Disney
Жанр: мультфильм, фантастика, приключения, семейный
Продолжительность: 29 x ~ 00:23:06, 9 x ~ 00:00:57
Перевод: Профессиональный (дублированный)
Режиссеры: Пол Димайер, Сью Перротто, Джон Энг, ...
Роли озвучивали: Оливия Манн, Каллен МакКарти, Фиона Бишоп, Ди Брэдли Бейкер, Том Кенни, Грэй Гриффин, Дидрих Бадер, Дэнни Джейкобс, Сэм Лаваньино, Этан Вакер, ...
Роли дублировали: Елена Шульман, Владимир Войтюк, Василиса Эльдарова, Алексей Черных, Анна Киселева, ...
О фильме:
Знакомьтесь с юным любителем приключений Майлзом Каллисто и его необычной семьей! Мама парнишки — пилот космического корабля, папа — инженер-механик, а старшая сестра — настоящая всезнайка в области различных технологий. Вместе с ними и домашним питомцем, роботом-страусом Мёрком, Майлз путешествует по просторам вселенной и исследует неизведанные миры. В эпизодах познавательного мультсериала юных телезрителей ждут удивительные открытия!

Содержание:

1 сезон (США):
01 эпизод - 6 февраля 2015
29 эпизод - 4 декабря 2015

s1e01. Сбежавший шаттл + Катание в водовороте / Runaway Shuttle + Surfin' the Whirlpool
s1e02. Океан в движении + Обмен Исследователей / Ocean in Motion + Explorer Exchange
s1e03. Сыграем + Как я спас свои летние каникулы / Game On + How I Saved My Summer Vacation
s1e04. Путешествие на Ледяную планету + Атака фликораксов / Journey to the Frozen Planet + Attack of the Flickorax
s1e05. Поймай биту! + Супер-Мёрк / Catch That IOTA! + Mighty Merc
s1e06. Кто украл Стеллосферу + Игра в мяч / Who Stole the Stellosphere? + Rock N' Roll
s1e07. С днём капитана + Планета растений / Happy Captain's Day + Planet of the Plants
s1e08. Уменьшенные + Катание с кварконами / Downsized + Ride of the Quarkons
s1e09. В зону Златовласки + Заминка в плане / To the Goldilocks Zone + Hiccup in the Plan
s1e10. Полиция начеку + Захватчик корабля / On Spaceguard + Spaceship Invader
s1e11. Приключения с домашними роботами + Погоня за бластбордом / Adventures in Robo-Pet Sitting + The Great Blastboard Chase
s1e12. Отключенные + Замусоренные / Unplugged + Junked
s1e13. Мама-Мёрк + Космическая гонка / Mama Merc + Space Race
s1e14. Приключения на Нептуне + Глаза в глаза / The Neptune Adventure + Eye to Eye
s1e15. День Юрия + Я, Стелла / Yuri's Night + I, Stella
s1e16. Замороженная еда + Пока, мультилифт / Frozen Food + Later, Multivator
s1e17. Лунный Новый Год + Дневники ховербайкера / Lunar New Year + The Hoverbike Diaries
s1e18. Поиск Скеллинга Ро + Вид под угрозой / The Search for Skellig Ro + Endangered Species
s1e19. Взрыв астероида + Магнитный Мёрк / Blasteroid + Magnetic Merc
s1e20. Растущая проблема + Приключения тихоходки / A Growing Problem + The Tardigrade Escapade
s1e21. Майлз против вулкана + Охотники на Марсе / Miles vs. the Volcano + Scavengers of Mars
s1e22. Неожиданный союзник + Седьмое небо / Unexpected Ally + Skyrise
s1e23. Луна с привидениями + Страшная ночь в Темной Туманности / Ghost Moon + Stormy Night in a Dark Nebula
s1e24. Мир динозавров + Команда Экзо-Флекс / Dino World + Team Exo-Flex
s1e25. Спасение Плутона + Захват солнечного экспресса / The Pluto Rescue + The Taking of the Solar Express
s1e26. Космический торговец + Квантовый кубок / The Space Trader + The Quantum Cup
27. Легенда о Змеельве + Загадка Атлантикс / The Legend of Sandelion + The Mystery of Atlantix
28. Побег со станции Тето + Автостопом по Галактике / Escape From the Tethoscape + The Hitchhiker's Ride Through the Galaxy

s1e29. Исследовательская экспедиция + Снежный шар / The Discovery Expedition + Snow Globe
-Доп. информация: Бонусы "Послания Майлза", где Майлз подробно рассказывает о правилах для космических путешественников.
Русский видеоряд (RUS). Серии перенумерованы по хронологии выхода в США.

Официальный сайт / Семпл-Файл
Формат: MP4
Качество: WEBRip-AVC 480p
Видео: AVC, Main@L3, 854x480 (16:9), ~ 884 Kbps, 25.000 fps
Звук: 44.1 KHz, AAC-LC 2.0, 126 Kbps
Субтитры: нет

MI

s1e14. Приключения на Нептуне + Глаза в Глаза. SD-merci-.mp4
Format : MPEG-4
Format profile : Base Media
Codec ID : isom (isom/iso2/avc1/mp41)
File size : 168 MiB
Duration : 23mn 6s
Overall bit rate : 1 016 Kbps
Writing application : Lavf55.19.102
Video
ID : 1
Format : AVC
Format/Info : Advanced Video Codec
Format profile : Main@L3
Format settings, CABAC : Yes
Format settings, ReFrames : 3 frames
Codec ID : avc1
Codec ID/Info : Advanced Video Coding
Duration : 23mn 6s
Bit rate : 884 Kbps
Width : 854 pixels
Height : 480 pixels
Display aspect ratio : 16:9
Frame rate mode : Constant
Frame rate : 25.000 fps
Color space : YUV
Chroma subsampling : 4:2:0
Bit depth : 8 bits
Scan type : Progressive
Bits/(Pixel*Frame) : 0.086
Stream size : 146 MiB (87%)
Audio
ID : 2
Format : AAC
Format/Info : Advanced Audio Codec
Format profile : LC
Codec ID : 40
Duration : 23mn 6s
Bit rate mode : Constant
Bit rate : 126 Kbps
Channel(s) : 2 channels
Channel positions : Front: L R
Sampling rate : 44.1 KHz
Frame rate : 43.066 fps (1024 spf)
Compression mode : Lossy
Stream size : 20.8 MiB (12%)
Default : Yes
Alternate group : 1

Скриншоты

Релиз от: -merci-Добавил бонусы :
+ 01-03, 05-10 - 31.03.2016
Добавил эпизоды:
+ 21-23, 29 - 31.03.2016
+ 24-25 - 06.04.2016
+ 26 - 10.04.2016
+ 27,28 - 14.04.2016
[Профиль] [ЛС]
Показать сообщения:    

Текущее время: Сегодня 00:37

Часовой пояс: GMT



Вы не можете начинать темы
Вы не можете отвечать на сообщения
Вы не можете редактировать свои сообщения
Вы не можете удалять свои сообщения
Вы не можете голосовать в опросах
Вы не можете прикреплять файлы к сообщениям
Вы не можете скачивать файлы