Мажор [01-12 из 12] (2014) DVB от Files-х

 
Автор Сообщение

Белочка ®

Пол:

Стаж: 5 лет 1 месяц

Сообщений: 2089



Награды: 1 (Подробнее)

Girls (Количество: 1)
Торрент-статистика

Создавать темы 27-Дек-2014 12:26

[Цитировать]

Оригинальное название: Мажор
Год выпуска: 2014
Жанр: Криминальная драма
Режиссер: Константин Статский
В ролях: Павел Прилучный, Карина Разумовская, Дмитрий Шевченко, Денис Шведов, Александр Обласов, Никита Панфилов, Анна Андрусенко, Остап Ступка, Александр Дьяченко, Игорь Жижикин, Заза Чантурия, Дмитрий Гаврилов (II), Марина Дьяконенко, Алла Мартынюк, Саак Дурян
О фильме: Главный герой – Игорь Соколовский – сын высокопоставленного и богатого человека. Имея юридическое образование, Игорь не спешит найти ему применение, прожигая жизнь в ночных клубах с друзьями. Однажды, вступившись за товарища, Игорь ввязывается в драку с полицейским. Замяв историю, отец лишает Игоря всего, отправляя работать в то самое отделение полиции. Поначалу возненавидев свою новую жизнь, Игорь постепенно становится мужчиной, встречает любовь и задаётся целью найти убийцу матери...
Выпущено: Россия, Продюсерский центр «Среда»
Продолжительность: 12 х ~ 00:52:00
Перевод: Не требуется
Файл
Качество: DVB
Видео: MPEG-4 AVC, ~ 2800 Кбит/с, 720x576@1024х576
Аудио: MP2, 2 ch, 192 Кбит/с

MI

General
ID : 1 (0x1)
Complete name : D:VytasRipaiMazhor.2014.DVB.Files-x5.Mazhor.2014.DVB.Files-x.ts
Format : MPEG-TS
File size : 1.01 GiB
Duration : 52mn 16s
Overall bit rate mode : Variable
Overall bit rate : 2 778 Kbps
Video
ID : 68 (0x44)
Menu ID : 1 (0x1)
Format : AVC
Format/Info : Advanced Video Codec
Format profile : High@L3.0
Format settings, CABAC : Yes
Format settings, ReFrames : 4 frames
Format settings, GOP : M=4, N=24
Codec ID : 27
Duration : 52mn 16s
Bit rate : 2 447 Kbps
Width : 720 pixels
Height : 576 pixels
Display aspect ratio : 16:9
Frame rate : 25.000 fps
Standard : Component
Color space : YUV
Chroma subsampling : 4:2:0
Bit depth : 8 bits
Scan type : Interlaced
Scan order : Top Field First
Bits/(Pixel*Frame) : 0.236
Stream size : 915 MiB (88%)
Color primaries : BT.601 PAL
Transfer characteristics : BT.470 System B, BT.470 System G
Matrix coefficients : BT.601
Color range : Limited
Audio
ID : 69 (0x45)
Menu ID : 1 (0x1)
Format : MPEG Audio
Format version : Version 1
Format profile : Layer 2
Codec ID : 3
Duration : 52mn 16s
Bit rate mode : Constant
Bit rate : 192 Kbps
Channel(s) : 2 channels
Sampling rate : 48.0 KHz
Compression mode : Lossy
Stream size : 71.8 MiB (7%)
Language : Russian

Скриншоты

Релиз от:
[Профиль] [ЛС]
Показать сообщения:    

Текущее время: Сегодня 09:59

Часовой пояс: GMT



Вы не можете начинать темы
Вы не можете отвечать на сообщения
Вы не можете редактировать свои сообщения
Вы не можете удалять свои сообщения
Вы не можете голосовать в опросах
Вы не можете прикреплять файлы к сообщениям
Вы не можете скачивать файлы