Мадагаскар 2 / Madagascar: Escape 2 Africa (2008) BDRip 1080p

 
Автор Сообщение

BOSS ®

Пол:

Стаж: 3 года

Сообщений: 7569

Откуда: ODESSA



Награды: 22 (Подробнее)

Mega Releaser 3 (Количество: 1) Top Keeper 3 (Количество: 1) Mega Seeder 3 (Количество: 1)
Торрент-статистика

Создавать темы 29-Июл-2017 07:27

[Цитировать]

Информация о фильме
Название: Мадагаскар 2
Оригинальное название: Madagascar: Escape 2 Africa
Год выхода: 2008
Жанр: мультфильм, комедия, приключения, семейный
Режиссер: Эрик Дарнелл, Том МакГрат
В ролях: Бен Стиллер, Крис Рок, Дэвид Швиммер, Джада Пинкетт Смит, Саша Барон Коэн, Седрик «Развлекатель», Энди Рихтер, Берни Мак, Алек Болдуин, Шерри Шеперд
О фильме: Полная опасностей жизнь на Мадагаскаре не оправдала ожиданий привыкших к комфорту Нью-Йоркского зоопарка животных — льва Алекса, зебры Марти, жирафа Мелмана и бегемотихи Глории — и друзья решают сбежать с острова. По случайности, всю компанию заносит в Африку, где Алекс встречает свою семью, с которой он был разлучен в детстве. Неожиданно для себя Алекс понимает, что после жизни в зоопарке у него гораздо меньше общего с родственниками, чем ему хотелось бы…

Выпущено: DreamWorks Animation
Продолжительность: 01:29:24
Перевод: Дублированный
Файл
Кодек: x264
Качество: BDRip (источник: Blu-ray Disc)
Видео: 1920x1080 (16:9), 23.976 fps, 6361 kbps
Звук: 48 kHz, AC-3, 6 ch, 640 kbps
Субтитры: Русские, Английские
Скачать: сэмпл
Скриншоты

MI

Общее
Уникальный идентификатор : 209391377226723426899112505886553432549 (0x9D874FF6271B2C6AB0ABB6DC089461E5)
Полное имя : Madagascar.Escape.2.Africa.2008.BDRip.1080p.Rus.mkv
Формат : Matroska
Версия формата : Version 2
Размер файла : 4,37 Гбайт
Продолжительность : 1 ч. 29 м.
Общий поток : 7001 Кбит/сек
Дата кодирования : UTC 2011-10-22 12:21:42
Программа кодирования : mkvmerge v4.0.0 ('The Stars were mine') сборка от Jun 6 2010 16:18:42
Библиотека кодирования : libebml v1.0.0 + libmatroska v1.0.0
Видео
Идентификатор : 1
Формат : AVC
Формат/Информация : Advanced Video Codec
Профиль формата : High@L4.1
Параметр CABAC формата : Да
Параметр ReFrames формата : 4 кадра
Идентификатор кодека : V_MPEG4/ISO/AVC
Продолжительность : 1 ч. 29 м.
Битрейт : 6361 Кбит/сек
Ширина : 1920 пикселей
Высота : 1080 пикселей
Соотношение сторон : 16:9
Частота кадров : 23,976 кадра/сек
Цветовое пространство : YUV
Субдискретизация насыщенности : 4:2:0
Битовая глубина : 8 бит
Тип развёртки : Прогрессивная
Бит/(Пиксели*Кадры) : 0.128
Размер потока : 3,89 Гбайт (89%)
Библиотека кодирования : x264 core 118 r2085 8a62835
Настройки программы : cabac=1 / ref=4 / deblock=1:0:0 / analyse=0x3:0x133 / me=umh / subme=10 / psy=1 / psy_rd=1.00:0.00 / mixed_ref=1 / me_range=32 / chroma_me=1 / trellis=2 / 8x8dct=1 / cqm=0 / deadzone=21,11 / fast_pskip=0 / chroma_qp_offset=-2 / threads=12 / sliced_threads=0 / nr=0 / decimate=1 / interlaced=0 / bluray_compat=0 / constrained_intra=0 / bframes=3 / b_pyramid=2 / b_adapt=2 / b_bias=0 / direct=3 / weightb=1 / open_gop=0 / weightp=2 / keyint=240 / keyint_min=24 / scenecut=40 / intra_refresh=0 / rc_lookahead=60 / rc=2pass / mbtree=1 / bitrate=6361 / ratetol=1.0 / qcomp=0.60 / qpmin=0 / qpmax=69 / qpstep=4 / cplxblur=20.0 / qblur=0.5 / ip_ratio=1.40 / aq=1:1.00
Язык : English
Аудио
Идентификатор : 2
Формат : AC-3
Формат/Информация : Audio Coding 3
Расширение режима : CM (complete main)
Идентификатор кодека : A_AC3
Продолжительность : 1 ч. 29 м.
Вид битрейта : Постоянный
Битрейт : 640 Кбит/сек
Каналы : 6 каналов
Расположение каналов : Front: L C R, Side: L R, LFE
Частота : 48,0 КГц
Битовая глубина : 16 бит
Метод сжатия : С потерями
Размер потока : 409 Мбайт (9%)
Язык : Russian
Текст #1
Идентификатор : 3
Формат : UTF-8
Идентификатор кодека : S_TEXT/UTF8
Идентификатор кодека/Информация : UTF-8 Plain Text
Язык : Russian
Текст #2
Идентификатор : 4
Формат : UTF-8
Идентификатор кодека : S_TEXT/UTF8
Идентификатор кодека/Информация : UTF-8 Plain Text
Язык : Russian
Текст #3
Идентификатор : 5
Формат : UTF-8
Идентификатор кодека : S_TEXT/UTF8
Идентификатор кодека/Информация : UTF-8 Plain Text
Язык : English
Меню
00:00:00.000 : :Chapter 01
00:04:15.880 : :Chapter 02
00:06:46.614 : :Chapter 03
00:09:25.773 : :Chapter 04
00:15:51.951 : :Chapter 05
00:17:34.762 : :Chapter 06
00:20:26.934 : :Chapter 07
00:23:57.352 : :Chapter 08
00:28:03.556 : :Chapter 09
00:30:58.898 : :Chapter 10
00:33:52.905 : :Chapter 11
00:35:19.909 : :Chapter 12
00:38:15.418 : :Chapter 13
00:42:59.910 : :Chapter 14
00:45:35.941 : :Chapter 15
00:49:22.918 : :Chapter 16
00:52:17.259 : :Chapter 17
00:55:17.772 : :Chapter 18
00:57:59.809 : :Chapter 19
01:03:28.638 : :Chapter 20
01:06:33.948 : :Chapter 21
01:15:17.888 : :Chapter 22
01:19:48.074 : :Chapter 23
01:29:24.150 : :Chapter 24
[Профиль] [ЛС]
Кто просматривает тему:

Форум Тема Автор Размер
Nat Geo Wild Nat Geo Wild: Мадагаскар: Легенда острова лемуров / Madagascar (Colin Collins) [2015 г., Документальный, природа, флора, фауна, HDTVRip-AVC 720p] skorpionN 1.59 GB
Nat Geo Wild Nat Geo Wild: Фантастические существа Мадагаскара / Madagaskar's: Fantastic Creatures (Colin Collis) [2016 г., Документальный, научно-популярный, фауна, флора, HDTVRip-AVC 720p] skorpionN 1.59 GB
R.G.TorrentFilm Video Легендарные лемуры Мадагаскара / Madagascar's Legendary Lemurs (Вероника Маккарти / Veronica McCarthy) [2015 г., Документальный, HDTVRip] Один 777 598 MB
3D Мультфильмы Мадагаскар 3 в 3Д / Madagascar 3: Europe's Most Wanted 3D (Эрик Дарнелл, Том МакГрат, Конрад Вернон / Eric Darnell, Tom McGrath, Conrad Vernon) [2012, Мультфильм, Приключения, Семейный,... BOSS 10.12 GB
R.G.TorrentFilm Video Мадагаскар. Зеленые сокровища Красного острова / Madagascar. Green Treasure of the Red island (Ронан Фурнье-Кристоль / Ronan Fournier-Christol) [2014 г., Документальный, природа, SATRip] Один 777 595 MB
Зарубежные мультфильмы Мадагаскар: Коллекция / Madagascar: Collection (Эрик Дарнелл, Том МакГрат) [2005-2014, Мультфильм, комедия, приключения, семейный, полнометражный] BDRip BOSS 5.81 GB
Документальные HD Остров лемуров: Мадагаскар / Galapagos 3D with David Attenborough (Дэвид Дуглас / David Douglas) [2014, документальный, BDRemux 1080p] TorrentFilm 8.02 GB
Зарубежные мультфильмы Пингвины Мадагаскара / Penguins of Madagascar (2014) BDRip | D | Лицензия sergej644 747 MB
Показать сообщения:    

Текущее время: Сегодня 05:51

Часовой пояс: GMT



Вы не можете начинать темы
Вы не можете отвечать на сообщения
Вы не можете редактировать свои сообщения
Вы не можете удалять свои сообщения
Вы не можете голосовать в опросах
Вы не можете прикреплять файлы к сообщениям
Вы не можете скачивать файлы