Лёгкая улыбка покоряет мир / Любовь из онлайна в оффлайн / Love O2O (2016) HDTVRip-AVC от Batafurai Team и SOUND-GROUP | L2

 
Автор Сообщение

Russian Mafia ®

Пол:

Стаж: 2 года 2 месяца

Сообщений: 4250



Награды: 10 (Подробнее)

Mega Seeder 3 (Количество: 1) Top Releaser 3 (Количество: 1) Top Releaser 4 (Количество: 1)
Торрент-статистика

Создавать темы 06-Окт-2016 18:44

[Цитировать]

Лёгкая улыбка покоряет мир / Любовь из онлайна в оффлайн / Love O2O
Год выпуска: 2016
Страна: Китай
Жанр: романтика
Продолжительность: 01:43:29
Перевод: Любительский (двухголосый закадровый)
Cубтитры: китайский/английский хардсаб
Русские субтитры: есть
Режиссер: Чжао Тяньюй / Zhao Tianyu
В ролях: Анджела Бейби, Цзин Бо Жань, Ву Цянь, Ли Цинь, Бай Юй
Описание: Что заставляет мужчину влюбиться в женщину с первого взгляда? Внешность? Аура? Богатство? НЕТ! Когда студент Сяо Най впервые увидел Вей Вэй Вэй, он влюбился не в её необычайную красоту, а в её тонкие пальцы, которые быстро порхали над клавиатурой!!! Неловко, нет?
В то же время игровой эксперт Вей Вэй Вэй одержала славную победу в компьютерной игре несмотря на невыгодное положение, совершенно не подозревая, что амур уже поблизости. Чтобы завоевать сердце этой красавицы, президент компании Сяо Най использует тактику онлайн-игры.
Релиз группы:
Доп. информация: Перевод осуществляли команда фан-саб группы "Логово Злого Волка"
Озвучивание: Ворон и Wenlana
Смотреть обязательно с форсированными субтитрами
Прежде чем качать видео и комментировать, скачайте сэмпл и послушайте!

Качество: HDTVRip-AVC - Сэмпл
Исходник: Love.O2O.2016.HD1080P.X264.AAC.Mandarin.CHS-ENG.Mp4Ba
Формат видео: mkv
Видео: 720x304 (2,35:1), 24,000 fps, x264 ~1645 kbps avg, 0.313 bit/pixel
Аудио: 48 kHz, AC3 Dolby Digital, 2/0 (L,R) ch, ~192 kbps (Русский)
Аудио: 48 kHz, AC3 Dolby Digital, 2/0 (L,R) ch, ~192 kbps (Китайский)
Формат субтитров: [форсированный(надписи) / полные]softsub (ass)

Скриншоты

Пример Субтитров

Dialogue: 0,0:14:48.28,0:14:50.08,Default,,0,0,0,,{blur6}А разве не с Камышинкой он только что развёлся?
Dialogue: 0,0:14:50.08,0:14:51.62,Default,,0,0,0,,{blur6}У неё такой грустный вид...
Dialogue: 0,0:14:51.68,0:14:54.28,Default,,0,0,0,,{blur6}Вэйвэй! Тебя же устраивал наш развод?!
Dialogue: 0,0:14:54.28,0:14:56.60,Default,,0,0,0,,{blur6}Я хотел тебе компенсировать, ты сама отказалась!
Dialogue: 0,0:14:56.60,0:14:57.58,Default,,0,0,0,,{blur6}Вэйвэй!
Dialogue: 0,0:14:57.58,0:14:59.34,Default,,0,0,0,,{blur6}Давай, Вэйвэй, укради жениха!
Dialogue: 0,0:14:59.34,0:15:02.66,Default,,0,0,0,,{blur6}Давай, Вэйвэй, укради жениха!
Dialogue: 0,0:15:03.82,0:15:05.22,Default,,0,0,0,,{blur6}Теперь я о тебе позабочусь...
Dialogue: 0,0:15:09.40,0:15:11.06,Default,,0,0,0,,{blur6}Чего ты хочешь, Вэйвэй?
Dialogue: 0,0:15:11.20,0:15:14.10,Default,,0,0,0,,{blur6}Чего ты добиваешься?
Dialogue: 0,0:15:14.10,0:15:15.42,Default,,0,0,0,,{blur6}Это всё ты виноват!
Dialogue: 0,0:15:17.54,0:15:20.52,Default,,0,0,0,,{blur6}Послушай, я просто ловила таракана...
Dialogue: 0,0:15:21.16,0:15:24.02,Default,,0,0,0,,{blur6}Камышинка Вэйвэй - в десятке лучших бойцов!
Dialogue: 0,0:15:24.02,0:15:26.58,Default,,0,0,0,,{blur6}- Мы с Демонессой - идеальная пара!N- Отвали, Демонесса - моя!
Dialogue: 0,0:15:26.58,0:15:28.90,Default,,0,0,0,,{blur6}Давай, Вэйвэй, укради жениха!
Dialogue: 0,0:15:28.90,0:15:31.50,Default,,0,0,0,,{blur6}Давай, Вэйвэй, укради жениха!
Dialogue: 0,0:15:31.50,0:15:33.24,Default,,0,0,0,,{blur6}Если я сейчас сбегу,
Dialogue: 0,0:15:33.24,0:15:36.44,Default,,0,0,0,,{blur6}все скажут, что я убежала в слезах?
Dialogue: 0,0:15:38.64,0:15:42.16,Default,,0,0,0,,{blur6}- Укради! Укради!N- Народ, у меня товар на продажу!
Dialogue: 0,0:15:42.16,0:15:44.98,Default,,0,0,0,,{blur6}Эликсиры от травника высшего уровня!
Dialogue: 0,0:15:44.98,0:15:48.42,Default,,0,0,0,,{blur6}Скидка 20% на всё!
Dialogue: 0,0:15:48.42,0:15:50.98,Default,,0,0,0,,{blur6}Да их же нигде не добыть! Надо поторопиться!
Dialogue: 0,0:15:50.98,0:15:52.80,Default,,0,0,0,,{blur6}Мне один! Мне один!
Dialogue: 0,0:15:52.80,0:15:56.54,Default,,0,0,0,,{blur6}- И мне! N - Вот свезло сегодня! Быстрее!
Dialogue: 0,0:15:56.54,0:15:57.70,Default,,0,0,0,,{blur6}Лови!
Dialogue: 0,0:16:02.50,0:16:04.12,Default,,0,0,0,,{blur6}На сегодня всё продано!
Dialogue: 0,0:16:04.12,0:16:05.72,Default,,0,0,0,,{blur6}Спасибо всем за покупки!
Dialogue: 0,0:16:05.72,0:16:07.72,Default,,0,0,0,,{blur6}Надо же, продано..
Dialogue: 0,0:16:07.72,0:16:10.18,Default,,0,0,0,,{blur6}Неужели всё продано? А мне не досталось...
Dialogue: 0,0:16:11.76,0:16:12.92,Default,,0,0,0,,{blur6}Жалость какая...
Dialogue: 0,0:16:12.92,0:16:15.00,Default,,0,0,0,,{blur6}Пойдём, пару золотых словим.

отчет MediaInfo

Формат : Matroska
Версия формата : Version 4 / Version 2
Размер файла : 1,47 Гбайт
Продолжительность : 1 ч. 43 м.
Общий поток : 2033 Кбит/сек
Дата кодирования : UTC 2016-10-06 16:20:06
Программа кодирования : mkvmerge v8.2.0 ('World of Adventure') 32bit
Библиотека кодирования : libebml v1.3.1 + libmatroska v1.4.2
Attachments : 9908.otf / AmericanTypewriter.ttf / noteworthy.otf / Noteworthy.ttc
Видео
Идентификатор : 1
Формат : AVC
Формат/Информация : Advanced Video Codec
Профиль формата : High@L4.1
Параметр CABAC формата : Да
Параметр ReFrames формата : 9 кадров
Идентификатор кодека : V_MPEG4/ISO/AVC
Продолжительность : 1 ч. 43 м.
Битрейт : 1645 Кбит/сек
Ширина : 720 пикселей
Высота : 304 пикселя
Соотношение сторон : 2,35:1
Режим частоты кадров : Постоянный
Частота кадров : 24,000 кадра/сек
Цветовое пространство : YUV
Субдискретизация насыщенности : 4:2:0
Битовая глубина : 8 бит
Тип развёртки : Прогрессивная
Бит/(Пиксели*Кадры) : 0.313
Размер потока : 1,19 Гбайт (81%)
Библиотека кодирования : x264 core 148 r2638 7599210
Настройки программы : cabac=1 / ref=9 / deblock=1:-2:-1 / analyse=0x3:0x133 / me=umh / subme=10 / psy=1 / psy_rd=1.00:0.00 / mixed_ref=1 / me_range=24 / chroma_me=1 / trellis=2 / 8x8dct=1 / cqm=0 / deadzone=21,11 / fast_pskip=0 / chroma_qp_offset=-2 / threads=6 / lookahead_threads=1 / sliced_threads=0 / nr=0 / decimate=0 / interlaced=0 / bluray_compat=0 / constrained_intra=0 / bframes=9 / b_pyramid=2 / b_adapt=2 / b_bias=0 / direct=3 / weightb=1 / open_gop=1 / weightp=2 / keyint=240 / keyint_min=24 / scenecut=40 / intra_refresh=0 / rc_lookahead=60 / rc=2pass / mbtree=0 / bitrate=1645 / ratetol=1.0 / qcomp=0.70 / qpmin=10 / qpmax=51 / qpstep=4 / cplxblur=20.0 / qblur=0.5 / vbv_maxrate=62500 / vbv_bufsize=78125 / nal_hrd=none / filler=0 / ip_ratio=1.40 / pb_ratio=1.30 / aq=1:1.00
Язык : English
Default : Да
Forced : Нет
Цветовой диапазон : Limited
Коэффициенты матрицы : BT.709
Аудио #1
Идентификатор : 2
Формат : AC-3
Формат/Информация : Audio Coding 3
Расширение режима : CM (complete main)
Параметр Endianness формата : Big
Идентификатор кодека : A_AC3
Продолжительность : 1 ч. 43 м.
Вид битрейта : Постоянный
Битрейт : 192 Кбит/сек
Каналы : 2 канала
Расположение каналов : Front: L R
Частота : 48,0 КГц
Частота кадров : 31,250 кадров/сек (1536 spf)
Метод сжатия : С потерями
Размер потока : 142 Мбайт (9%)
Заголовок : Ворон и Wenlana
Язык : Russian
Default : Да
Forced : Нет
Аудио #2
Идентификатор : 3
Формат : AC-3
Формат/Информация : Audio Coding 3
Расширение режима : CM (complete main)
Параметр Endianness формата : Big
Идентификатор кодека : A_AC3
Продолжительность : 1 ч. 43 м.
Вид битрейта : Постоянный
Битрейт : 192 Кбит/сек
Каналы : 2 канала
Расположение каналов : Front: L R
Частота : 48,0 КГц
Частота кадров : 31,250 кадров/сек (1536 spf)
Метод сжатия : С потерями
Размер потока : 142 Мбайт (9%)
Заголовок : Original
Язык : Chinese
Default : Нет
Forced : Нет
Текст #1
Идентификатор : 4
Формат : ASS
Идентификатор кодека : S_TEXT/ASS
Идентификатор кодека/Информация : Advanced Sub Station Alpha
Продолжительность : 1 ч. 11 м.
Битрейт : 2 бит/сек
Count of elements : 14
Метод сжатия : Без потерь
Размер потока : 1,26 Кбайт (0%)
Заголовок : форсированный(надписи)
Язык : Russian
Default : Да
Forced : Да
Текст #2
Идентификатор : 5
Формат : ASS
Идентификатор кодека : S_TEXT/ASS
Идентификатор кодека/Информация : Advanced Sub Station Alpha
Продолжительность : 1 ч. 37 м.
Битрейт : 142 бит/сек
Count of elements : 1222
Метод сжатия : Без потерь
Размер потока : 102 Кбайт (0%)
Заголовок : Перевод: Логово Злого Волка
Язык : Russian
Default : Нет
Forced : Нет
[Профиль] [ЛС]
Кто просматривает тему:

Форум Тема Автор Размер
XXXI Летние Олимпийские игры. Рио-де-Жанейро 2016 (Бразилия) XXXI Летние Олимпийские Игры. Рио-де-Жанейро (Бразилия). Легкая атлетика. Восьмой день. Утро [19.08] (2016) HDTV 1080i достали все 11.89 GB
XXXI Летние Олимпийские игры. Рио-де-Жанейро 2016 (Бразилия) XXXI Летние Олимпийские Игры. Рио-де-Жанейро (Бразилия). Легкая атлетика. Второй день. Вечер [13.08] (2016) HDTV 1080i BOSS 17.01 GB
XXXI Летние Олимпийские игры. Рио-де-Жанейро 2016 (Бразилия) XXXI Летние Олимпийские Игры. Рио-де-Жанейро (Бразилия). Легкая атлетика. Второй день. Утро [13.08] (2016) HDTV 1080i BOSS 16.86 GB
XXXI Летние Олимпийские игры. Рио-де-Жанейро 2016 (Бразилия) XXXI Летние Олимпийские Игры. Рио-де-Жанейро (Бразилия). Легкая атлетика. Первый день. Вечер [12.08] (2016) HDTV 1080i BOSS 12.93 GB
XXXI Летние Олимпийские игры. Рио-де-Жанейро 2016 (Бразилия) XXXI Летние Олимпийские Игры. Рио-де-Жанейро (Бразилия). Легкая атлетика. Первый день. Утро [12.08] (2016) HDTV 1080i BOSS 9.42 GB
XXXI Летние Олимпийские игры. Рио-де-Жанейро 2016 (Бразилия) XXXI Летние Олимпийские Игры. Рио-де-Жанейро (Бразилия). Легкая атлетика. Пятый день. Вечер [16.08] (2016) HDTV 1080i BOSS 9.88 GB
XXXI Летние Олимпийские игры. Рио-де-Жанейро 2016 (Бразилия) XXXI Летние Олимпийские Игры. Рио-де-Жанейро (Бразилия). Легкая атлетика. Пятый день. Утро [16.08] (2016) HDTV 1080i достали все 16.95 GB
XXXI Летние Олимпийские игры. Рио-де-Жанейро 2016 (Бразилия) XXXI Летние Олимпийские Игры. Рио-де-Жанейро (Бразилия). Легкая атлетика. Седьмой день. Вечер [18.08] (2016) HDTV 1080i ODESSA 11.47 GB
Показать сообщения:    

Текущее время: Сегодня 00:45

Часовой пояс: GMT



Вы не можете начинать темы
Вы не можете отвечать на сообщения
Вы не можете редактировать свои сообщения
Вы не можете удалять свои сообщения
Вы не можете голосовать в опросах
Вы не можете прикреплять файлы к сообщениям
Вы не можете скачивать файлы