Лягушки на грани исчезновения / Frogs The Thin Green Line (Эллисон Арго / Allison Argo) [2009, Документальный, научно-познавательный, природа, флора, фауна, BDRemux 1080p]

 
Автор Сообщение

TorrentFilm ®

Пол:

Стаж: 2 года

Сообщений: 7741



Награды: Нет

Торрент-статистика

Создавать темы 13-Янв-2015 00:01

[Цитировать]

Лягушки на грани исчезновения / Frogs The Thin Green Line- Год выпуска: 2009
Страна: США, National Geographic Television
Жанр: Документальный, научно-познавательный, природа, флора, фауна
Продолжительность: 00:52:57
Перевод: Профессиональный (одноголосый)
Русские субтитры: нет
Режиссер: Эллисон Арго / Allison Argo
В ролях: Allison Argo, Roger Tilling-Описание: Лягушки живут на этой планете более чем ''350 миллионов лет'', и на протяжении столетий, превратились в одни из самых чудесных и разнообразных существ на земле. Сегодня, однако, все их замечательные приспособления и тактика выживания не оправдывает себя. Действительно, это печальное положение дел для лягушек. Мы уже, наверное, потеряли треть амфибий, и многие другие находятся под серьезной угрозой-Доп. информация:
Сохранены оригинальные чаптеры как на Blu-ray
Русская озвучка была взята из HDTVRipа и адаптирована для данной версии фильма. (несколько минут без перевода)-Сэмпл
Тип релиза: BDRemux 1080p
Контейнер: MKV
Видео: H.264/AVC, 1920x1080p, 16:9, ~28Mbps, 23,976 fps
Аудио 1: Russian / Dolby Digital Audio / 2.0 / 48 kHz / 192 kbps
Аудио 2: German , DTS MA, 2.0, 48 kHz, 16 bit, 1510 kbps

Отчет MediaInfo

Общее
Уникальный идентификатор : 189739607606035961283999508041433957875 (0x8EBE84E9CC4BEF74B072336D54FD45F3)
Полное имя : J:\Закачка\PBS Nature - Frogs The Thin Green Line 2009 BDremux.mkv
Формат : Matroska
Версия формата : Version 4 / Version 2
Размер файла : 11,2 Гбайт
Продолжительность : 52 м.
Режим общего битрейта : Переменный
Общий поток : 30,4 Мбит/сек
Дата кодирования : UTC 2015-01-12 14:02:06
Программа кодирования : mkvmerge v7.4.0 ('Circles') 32bit built on Dec 12 2014 12:10:09
Библиотека кодирования : libebml v1.3.0 + libmatroska v1.4.1
DURATION : 00:52:56.992000000
NUMBER_OF_FRAMES : 99281
NUMBER_OF_BYTES : 76247808
_STATISTICS_WRITING_APP : mkvmerge v7.4.0 ('Circles') 32bit built on Dec 12 2014 12:10:09
_STATISTICS_WRITING_DATE_UTC : 2015-01-12 14:02:06
_STATISTICS_TAGS : BPS DURATION NUMBER_OF_FRAMES NUMBER_OF_BYTES
Видео
Идентификатор : 1
Формат : AVC
Формат/Информация : Advanced Video Codec
Профиль формата : High@L4.1
Параметр CABAC формата : Да
Параметр ReFrames формата : 2 кадра
Параметр GOP формата : M=1, N=5
Идентификатор кодека : V_MPEG4/ISO/AVC
Продолжительность : 52 м.
Вид битрейта : Переменный
Битрейт : 28,0 Мбит/сек
Максимальный битрейт : 30,2 Мбит/сек
Ширина : 1920 пикселей
Высота : 1080 пикселей
Соотношение сторон : 16:9
Частота кадров : 23,976 кадра/сек
Цветовое пространство : YUV
Субдискретизация насыщенности : 4:2:0
Битовая глубина : 8 бит
Тип развёртки : Прогрессивная
Бит/(Пиксели*Кадры) : 0.564
Размер потока : 10,4 Гбайт (92%)
Default : Да
Forced : Нет
Аудио #1
Идентификатор : 2
Формат : AC-3
Формат/Информация : Audio Coding 3
Расширение режима : CM (complete main)
Идентификатор кодека : A_AC3
Продолжительность : 52 м.
Вид битрейта : Постоянный
Битрейт : 192 Кбит/сек
Каналы : 2 канала
Расположение каналов : Front: L R
Частота : 48,0 КГц
Битовая глубина : 16 бит
Метод сжатия : С потерями
Размер потока : 72,7 Мбайт (1%)
Язык : Russian
Default : Да
Forced : Нет
Аудио #2
Идентификатор : 3
Формат : DTS
Формат/Информация : Digital Theater Systems
Профиль формата : MA / Core
Идентификатор кодека : A_DTS
Продолжительность : 52 м.
Вид битрейта : Переменный
Битрейт : 1558 Кбит/сек / 1510 Кбит/сек
Каналы : 2 канала
Расположение каналов : Front: L R
Частота : 48,0 КГц
Битовая глубина : 16 бит
Метод сжатия : Без потерь / Lossy
Язык : German
Default : Нет
Forced : Нет
Меню
00:00:00.000 : en:Chapter 1
00:00:10.719 : en:Chapter 2
00:09:44.083 : en:Chapter 3
00:18:18.430 : en:Chapter 4
00:29:45.950 : en:Chapter 5
00:52:40.991 : en:Chapter 6
[Профиль] [ЛС]
Показать сообщения:    

Текущее время: Сегодня 16:23

Часовой пояс: GMT



Вы не можете начинать темы
Вы не можете отвечать на сообщения
Вы не можете редактировать свои сообщения
Вы не можете удалять свои сообщения
Вы не можете голосовать в опросах
Вы не можете прикреплять файлы к сообщениям
Вы не можете скачивать файлы