Люси / Lucy (2014) BDRip 720p от R.G. HD-Films | 60 fps

 
Автор Сообщение

BOSS ®

Пол:

Стаж: 2 года 2 месяца

Сообщений: 3751

Откуда: ODESSA



Награды: 20 (Подробнее)

Top Seeder 3 (Количество: 1) Top Seeder 4 (Количество: 1) Mega Seeder 5 (Количество: 1)
Торрент-статистика

Создавать темы 05-Мар-2016 08:35

[Цитировать]

-Название: Люси
Оригинальное название: Lucy
Год выпуска: 2014
Страна: США, Франция
Жанр: боевик, фантастика
Продолжительность: 01:29:20
Перевод: Дубляж, Оригинальный
Субтитры: русские (Форсированные), русские (Полные), украинские (Полные), английские (Форсированные), английские (Полные), английские (Полные SDH)-Режиссер: Люк Бессон-В ролях: Скарлетт Йоханссон (Lucy), Морган Фриман (Professor Norman), Чхве Мин-сик (Mr. Jang), Амр Вакед (Pierre Del Rio), Джулиан Райнд-Татт (The Limey), Йохан Филип Асбек (Richard), Анали Типтон (Caroline), Николас Фонгфет (Jii), Ян Оливер Шрёдер (German Mule), Лука Анджелетти (Italian Mule), Луи Брабант (Professor), Пьер Граммон (Professor)-Описание:
Еще вчера она была просто сексапильной блондинкой, а сегодня - самое опасное и смертоносное создание на планете со сверхъестественными способностями и интеллектом. То, что совсем недавно лучшие умы мира считали фантастической теорией, для нее стало реальностью. И теперь из добычи она превратится в охотницу.
Ее зовут Люси...-Рейтинг:

MPAA: R - Лицам до 17 лет обязательно присутствие взрослого-Качество: BDRip 720p 60fps
Формат: MKV
Видео: AVC, 1280x536 (2.40:1), 6000 kbps, 59,940 fps, 0,146 bpp
Аудио №1: русский / AC3 / 5.1 / 48 kHz / 640 kbps / 16 bit
Аудио №2: английский / AC3 / 5.1 / 48 kHz / 640 kbps / 16 bit
Навигация по главам: есть- -

ОтчетМедиаИнфо

General
Unique ID : 195223394185764212242145643918371098607 (0x92DEA87752BD9F5E994CEEAC7F3C8FEF)
Format : Matroska
Format version : Version 4 / Version 2
File size : 4.53 GiB
Duration : 1h 29mn
Overall bit rate : 7 259 Kbps
Movie name : Tiberiumsun69
Encoded date : UTC 2016-03-05 06:45:06
Writing application : mkvmerge v8.3.0 ('Over the Horizon') 64bit
Writing library : libebml v1.3.1 + libmatroska v1.4.2
Attachment : Yes
Video
ID : 1
Format : AVC
Format/Info : Advanced Video Codec
Format profile : High@L4.1
Format settings, CABAC : Yes
Format settings, ReFrames : 9 frames
Codec ID : V_MPEG4/ISO/AVC
Duration : 1h 29mn
Bit rate : 6 000 Kbps
Width : 1 280 pixels
Height : 536 pixels
Display aspect ratio : 2.40:1
Frame rate : 59.940 fps
Color space : YUV
Chroma subsampling : 4:2:0
Bit depth : 8 bits
Scan type : Progressive
Bits/(Pixel*Frame) : 0.146
Stream size : 3.64 GiB (80%)
Title : Tiberiumsun69
Writing library : x264 core 146 r2538 121396c
Encoding settings : cabac=1 / ref=9 / deblock=1:0:0 / analyse=0x3:0x113 / me=umh / subme=9 / psy=1 / psy_rd=1.00:0.10 / mixed_ref=1 / me_range=32 / chroma_me=1 / trellis=2 / 8x8dct=1 / cqm=0 / deadzone=21,11 / fast_pskip=0 / chroma_qp_offset=-3 / threads=12 / lookahead_threads=3 / sliced_threads=0 / nr=0 / decimate=1 / interlaced=0 / bluray_compat=0 / constrained_intra=0 / bframes=16 / b_pyramid=2 / b_adapt=2 / b_bias=0 / direct=3 / weightb=1 / open_gop=0 / weightp=2 / keyint=250 / keyint_min=25 / scenecut=40 / intra_refresh=0 / rc_lookahead=40 / rc=2pass / mbtree=0 / bitrate=6000 / ratetol=1.0 / qcomp=0.60 / qpmin=0 / qpmax=69 / qpstep=4 / cplxblur=20.0 / qblur=0.5 / vbv_maxrate=14000 / vbv_bufsize=14000 / nal_hrd=none / filler=0 / ip_ratio=1.40 / pb_ratio=1.30 / aq=1:1.00
Language : English
Default : Yes
Forced : No
Audio #1
ID : 2
Format : AC-3
Format/Info : Audio Coding 3
Mode extension : CM (complete main)
Codec ID : A_AC3
Duration : 1h 29mn
Bit rate mode : Constant
Bit rate : 640 Kbps
Channel(s) : 6 channels
Channel positions : Front: L C R, Side: L R, LFE
Sampling rate : 48.0 KHz
Bit depth : 16 bits
Compression mode : Lossy
Stream size : 409 MiB (9%)
Title : Дубляж
Language : Russian
Default : Yes
Forced : No
Audio #2
ID : 3
Format : AC-3
Format/Info : Audio Coding 3
Mode extension : CM (complete main)
Codec ID : A_AC3
Duration : 1h 29mn
Bit rate mode : Constant
Bit rate : 640 Kbps
Channel(s) : 6 channels
Channel positions : Front: L C R, Side: L R, LFE
Sampling rate : 48.0 KHz
Bit depth : 16 bits
Compression mode : Lossy
Stream size : 409 MiB (9%)
Title : Оригинал
Language : English
Default : No
Forced : No
Text #1
ID : 4
Format : UTF-8
Codec ID : S_TEXT/UTF8
Codec ID/Info : UTF-8 Plain Text
Title : Форсированные
Language : Russian
Default : Yes
Forced : No
Text #2
ID : 5
Format : UTF-8
Codec ID : S_TEXT/UTF8
Codec ID/Info : UTF-8 Plain Text
Title : Полные
Language : Russian
Default : No
Forced : No
Text #3
ID : 6
Format : UTF-8
Codec ID : S_TEXT/UTF8
Codec ID/Info : UTF-8 Plain Text
Title : Полные
Language : Ukrainian
Default : No
Forced : No
Text #4
ID : 7
Format : UTF-8
Codec ID : S_TEXT/UTF8
Codec ID/Info : UTF-8 Plain Text
Title : Форсированные
Language : English
Default : No
Forced : No
Text #5
ID : 8
Format : UTF-8
Codec ID : S_TEXT/UTF8
Codec ID/Info : UTF-8 Plain Text
Title : Полные
Language : English
Default : No
Forced : No
Text #6
ID : 9
Format : UTF-8
Codec ID : S_TEXT/UTF8
Codec ID/Info : UTF-8 Plain Text
Title : Полные SDH
Language : English
Default : No
Forced : No
Menu
00:00:00.000 : :Chapter 01
00:05:26.367 : :Chapter 02
00:08:38.267 : :Chapter 03
00:15:45.903 : :Chapter 04
00:21:36.295 : :Chapter 05
00:26:05.397 : :Chapter 06
00:30:27.534 : :Chapter 07
00:37:36.254 : :Chapter 08
00:41:43.459 : :Chapter 09
00:47:32.558 : :Chapter 10
00:50:10.716 : :Chapter 11
00:55:32.495 : :Chapter 12
00:59:36.072 : :Chapter 13
01:02:08.099 : :Chapter 14
01:04:51.345 : :Chapter 15
01:07:14.030 : :Chapter 16
01:09:55.816 : :Chapter 17
01:12:26.133 : :Chapter 18
01:18:50.600 : :Chapter 19
01:22:31.571 : :Chapter 20
01:29:20.146 : :Chapter 21

Скриншоты

Просьба к переливающим на другие сайты, в оформлении указывайте пожалуйста авторство группы
[Профиль] [ЛС]
Кто просматривает тему:

Форум Тема Автор Размер
Фильмы 2014 года Люси / Lucy (2014) BDRip-AVC от HELLYWOOD | Лицензия Белочка 2.18 GB
Фильмы 2014 года Люси / Lucy (Люк Бессон / Luc Besson) [2014, США, Боевик, фантастика, BDRip-AVC] Dub + Sub Rus, Eng TorrentFilm 1.46 GB
Фильмы 2014 года Люси / Lucy (Люк Бессон / Luc Besson) [2014, Франция, боевик, фантастика, BDRip] AVO (Гаврилов) + Original Eng + Subs TorrentFilm 1.46 GB
Фильмы 2014 года Люси / Lucy (Люк Бессон / Luc Besson) [2014, Франция, боевик, фантастика, BDRip] Dub (iTunes) TorrentFilm 749 MB
Фильмы 2014 года Люси / Lucy (Люк Бессон / Luc Besson) [2014, Франция, Боевик, фантастика, BDRip] Dub + Original (Eng) + Sub (Rus, Eng) TorrentFilm 1.74 GB
Фильмы 2014 года Люси / Lucy (Люк Бессон / Luc Besson) [2014, Франция, боевик, фантастика, WEB-DLRip] Dub (iTunes) + Sub Rus TorrentFilm 743 MB
Фильмы 2014 года Люси / Lucy (Люк Бессон / Luc Besson) [2014, Франция, фантастика, боевик, BDRip-AVC] Dub + Sub Rus, Eng, Ukr + Original Eng TorrentFilm 2.24 GB
Фильмы 2014 года Люси / Lucy (Люк Бессон) [2014 г., Боевик, фантастика, BDRip] BOSS 2.04 GB
Показать сообщения:    

Текущее время: Сегодня 14:55

Часовой пояс: GMT



Вы не можете начинать темы
Вы не можете отвечать на сообщения
Вы не можете редактировать свои сообщения
Вы не можете удалять свои сообщения
Вы не можете голосовать в опросах
Вы не можете прикреплять файлы к сообщениям
Вы не можете скачивать файлы