Люси / Lucy (Люк Бессон / Luc Besson) [2014, Франция, боевик, фантастика, BDRip] AVO (Гаврилов) + Original Eng + Subs

 
Автор Сообщение

TorrentFilm ®

Пол:

Стаж: 2 года

Сообщений: 7741



Награды: Нет

Торрент-статистика

Создавать темы 11-Янв-2015 00:00

[Цитировать]

Люси / Lucy
«Она — ключ к тайнам Вселенной»
- Страна: Франция / Canal+ [fr], Ciné, EuropaCorp, TF1 Films Production
Жанр: боевик, фантастика
Год выпуска: 2014
Продолжительность: 01:29:20
Перевод: Авторский (одноголосый закадровый) А. Ю. Гаврилов
Cубтитры: русские (forced+full+full BD) + английские (forced+full+SDH+SDH-Colored) внешние
Оригинальная аудиодорожка: английский
Режиссёр: Люк Бессон / Luc Besson
В ролях: Скарлетт Йоханссон, Морган Фриман, Чхве Мин Сик, Амр Вакед, Джулиан Райнд-Татт, Йохан Филип Асбек, Анали Типтон, Николас Фонгфет, Ян Оливер Шрёдер, Лука Анджелетти.
Описание: Еще вчера она была просто сексапильной блондинкой, а сегодня — самое опасное и смертоносное создание на планете со сверхъестественными способностями и интеллектом. То, что совсем недавно лучшие умы мира считали фантастической теорией, для нее стало реальностью. И теперь из добычи она превратится в охотницу.-Рейтинг
imdb.com: 6.40 (184 318)
kinopoisk.ru: 6.848 (74 956)
MPAA: - лицам до 17 лет обязательно присутствие взрослого-Сэмпл: http://multi-up.com/1025609-Качество видео: BDRip [видео: Lucy.2014.1080p.Blu-ray.AVC.DTS-HD.MA.5.1-NiP]
Формат видео: AVI
Видео: XviD build 65, 720x304 (2.37:1), 23.976 fps, ~1564 kbps avg, 0.298 bit/pixel
Аудио 1: 48 kHz, AC3 Dolby Digital, 3/2 (L,C,R,l,r) + LFE ch, ~384 kbps avg (AVO)
Аудио 2: 48 kHz, AC3 Dolby Digital, 3/2 (L,C,R,l,r) + LFE ch, ~384 kbps avg (ENG)
Формат субтитров: softsub (SRT)
-

Благодарность

За перевод Гаврилова большое спасибо пользователям hdtracker.org:
rydanes, dwser, dunhill200, Denis1980, Brown15, GaryH, Chistobaev, Диммон, KerkP, Видео, Role, Отон, Denis2251, hulahup, Gangster, ultrajeka, fly32, Dr. Destructo, apollion, saenwert, Shumway.
И пользователям форума e-180: foxlight, пуля, zeleniy, kondratzx, chontvari, xerman13, Vladimir, MyxAmoP, luka69, karantin66, Nadoelo, uchitel538, madoff, furria62, audiolubitel, фёдор александрович, vit, Letyoha3, pestel, Iceman, carnivale, User.

MediaInfo

Общее
Полное имя : D:\Lucy.2014.DUAL.AVO.Gavrilov.BDRip.1,46Gb.XviD.AC3\Lucy.2014.DUAL.AVO.Gavrilov.BDRip.1,46Gb.XviD.AC3.avi
Формат : AVI
Формат/Информация : Audio Video Interleave
Размер файла : 1,46 Гбайт
Продолжительность : 1 ч. 29 м.
Общий поток : 2346 Кбит/сек
Название фильма : Lucy 2014
Режиссёр : Luc Besson
Дата записи : 11.12.2014
Программа кодирования : VirtualDubModRus 1.5.10.2 (build 2542/release)
Библиотека кодирования : VirtualDubMod build 2542/release
Правообладатель : Rutracker.org
Примечание : BDRip by MooN_WalkeR
Видео
Идентификатор : 0
Формат : MPEG-4 Visual
Профиль формата : Advanced Simple@L5
Параметр BVOP формата : 1
Параметр QPel формата : Нет
Параметр GMC формата : Без точки перехода
Параметр матрицы формата : Выборочная
Идентификатор кодека : XVID
Идентификатор кодека/Подсказка : XviD
Продолжительность : 1 ч. 29 м.
Битрейт : 1564 Кбит/сек
Ширина : 720 пикселей
Высота : 304 пикселя
Соотношение сторон : 2,35:1
Частота кадров : 23,976 кадра/сек
Цветовое пространство : YUV
Субдискретизация насыщенности : 4:2:0
Битовая глубина : 8 бит
Тип развёртки : Прогрессивная
Метод сжатия : С потерями
Бит/(Пиксели*Кадры) : 0.298
Размер потока : 999 Мбайт (67%)
Библиотека кодирования : XviD 65
Аудио #1
Идентификатор : 1
Формат : AC-3
Формат/Информация : Audio Coding 3
Расширение режима : CM (complete main)
Параметр Endianness формата : Big
Идентификатор кодека : 2000
Продолжительность : 1 ч. 29 м.
Вид битрейта : Постоянный
Битрейт : 384 Кбит/сек
Каналы : 6 каналов
Расположение каналов : Front: L C R, Side: L R, LFE
Частота : 48,0 КГц
Битовая глубина : 16 бит
Метод сжатия : С потерями
Размер потока : 245 Мбайт (16%)
Выравнивание : Разделение по промежуткам
Продолжительность промежутка : 42 мс. (1,00 видеокадр)
Время предзагрузки промежутка : 500 мс.
Заголовок : AVO
Аудио #2
Идентификатор : 2
Формат : AC-3
Формат/Информация : Audio Coding 3
Расширение режима : CM (complete main)
Параметр Endianness формата : Big
Идентификатор кодека : 2000
Продолжительность : 1 ч. 29 м.
Вид битрейта : Постоянный
Битрейт : 384 Кбит/сек
Каналы : 6 каналов
Расположение каналов : Front: L C R, Side: L R, LFE
Частота : 48,0 КГц
Битовая глубина : 16 бит
Метод сжатия : С потерями
Размер потока : 245 Мбайт (16%)
Выравнивание : Разделение по промежуткам
Продолжительность промежутка : 42 мс. (1,00 видеокадр)
Время предзагрузки промежутка : 500 мс.
Заголовок : ENG
[Профиль] [ЛС]
Показать сообщения:    

Текущее время: Сегодня 08:30

Часовой пояс: GMT



Вы не можете начинать темы
Вы не можете отвечать на сообщения
Вы не можете редактировать свои сообщения
Вы не можете удалять свои сообщения
Вы не можете голосовать в опросах
Вы не можете прикреплять файлы к сообщениям
Вы не можете скачивать файлы