Люси / Lucy (Люк Бессон / Luc Besson) [2014, Франция, боевик, фантастика, WEB-DLRip] Dub (iTunes) + Sub Rus

 
Автор Сообщение

TorrentFilm ®

Пол:

Стаж: 1 год 11 месяцев

Сообщений: 7741



Награды: Нет

Торрент-статистика

Создавать темы 21-Дек-2014 02:15

[Цитировать]

Люси / Lucy
Страна: Франция
Жанр: боевик, фантастика
Год выпуска: 2014
Продолжительность: 1:29:20
Перевод: Профессиональный (дублированный) iTunes
Cубтитры: русские вшитые форсированные на французскую и китайскую речь
Режиссер: Люк Бессон / Luc Besson
В ролях: Скарлетт Йоханссон, Морган Фримен, Аналей Типтон, Чхве Мин Сик, Амр Вакид, Мэйсон Ли, Йохан Филип Асбек, Фредерик Чау, Клер Трэн, Жан Оливер Шредер
Описание: Еще вчера она была просто сексапильной блондинкой, а сегодня — самое опасное и смертоносное создание на планете со сверхъестественными способностями и интеллектом. То, что совсем недавно лучшие умы мира считали фантастической теорией, для нее стало реальностью. И теперь из добычи она превратится в охотницу.


Качество видео: WEB-DLRip
Формат видео: AVI
Видео: DX50, 688 x 288 (2.40:1), 23.976 fps, 1 026 Kbps
Аудио: MPEG Audio Layer 3, 48.0 KHz, 2 ch, 128 Kbps

MediaInfo

General
Полное имя : D:\FFOutput\Люси.2014.D.WEB-DLRip.avi
Формат : AVI
Формат/Информация : Audio Video Interleave
Размер файла : 743 MiB
Продолжительность : 1h 29mn
Общий поток : 1 163 Kbps
Программа кодирования : VirtualDubMod 1.5.10.3 | www.virtualdub-fr.org || (build 2550/release)
Библиотека кодирования : VirtualDubMod build 2550/release
Video
Идентификатор : 0
Формат : MPEG-4 Visual
Профиль формата : Advanced Simple@L5
Параметр BVOP формата : 2
Параметр QPel формата : No
Параметр GMC формата : No warppoints
Параметр матрицы формата : Default (MPEG)
Идентификатор кодека : DX50
Идентификатор кодека/Подсказка : DivX 5
Продолжительность : 1h 29mn
Битрейт : 1 026 Kbps
Ширина : 688 pixels
Высота : 288 pixels
Соотношение сторон : 2.40:1
Частота кадров : 23.976 fps
Цветовое пространство : YUV
Субдискретизация насыщенности : 4:2:0
Битовая глубина : 8 bits
Тип развёртки : Progressive
Метод сжатия : Lossy
Бит/(Пиксели*Кадры) : 0.216
Размер потока : 656 MiB (88%)
Библиотека кодирования : XviD 1.2.1 (UTC 2008-12-04)
Audio
Идентификатор : 1
Формат : MPEG Audio
Версия формата : Version 1
Профиль формата : Layer 3
Идентификатор кодека : 55
Идентификатор кодека/Подсказка : MP3
Продолжительность : 1h 29mn
Вид битрейта : Constant
Битрейт : 128 Kbps
Каналы : 2 channels
Частота : 48.0 KHz
Метод сжатия : Lossy
Размер потока : 81.8 MiB (11%)
Выравнивание : Aligned on interleaves
Продолжительность промежутка : 42 ms (1.00 video frame)
Время предзагрузки промежутка : 504 ms
Библиотека кодирования : LAME3.99r
Настройки программы : -m s -V 4 -q 2 -lowpass 17 -b 128

Скриншот c названием фильма

[Профиль] [ЛС]
Показать сообщения:    

Текущее время: Сегодня 20:03

Часовой пояс: GMT



Вы не можете начинать темы
Вы не можете отвечать на сообщения
Вы не можете редактировать свои сообщения
Вы не можете удалять свои сообщения
Вы не можете голосовать в опросах
Вы не можете прикреплять файлы к сообщениям
Вы не можете скачивать файлы