Люпен III / Lupin III (2014) BDRip 1080p | L2

 
Автор Сообщение

sergej644 ®

Пол:

Стаж: 4 года 11 месяцев

Сообщений: 6041

Откуда: Soviet Union



Награды: Нет

Торрент-статистика

Создавать темы 13-Мар-2015 19:04

[Цитировать]

Люпен III / Lupin III (2014) BDRip 1080p | L2
- Информация о фильме:
Название: Люпен III
Оригинальное название: Lupin III / Rupan sansei
Год выхода: 2014
Жанр: боевик, комедия, приключения
Режиссер: Рюхэй Китамура
В ролях: Таданобу Асано, Ейяинг Рхатха Пхонгам, Ник Тейт, Витхая Пансрингарм, Джеффри Джулиано, Меиса Куроки, Сюн Огури, Джерри Янь, Сахайак Бунсанакит, Нирут Сиричанья
О фильме: История о гениальном воре Люпине Третьем, высылающем визитные карточки своим будущим жертвам.

Производство: Япония
Продолжительность: 02:12:53
Озвучивание: Любительское (двухголосое) [DeadSno & den904]
Вид субтитров: Вшитые отключаемые
Язык субтитров: Китайский (Simplified, Traditional)
Файл:
Формат: MKV
Качество: BDRip-AVC
Видео: MPEG-4 AVC/H.264, 1 920x804, 10.3 Mbps
Аудио #1: Русский - AC3 / 2.0 / 192 Kbps - Любительский (двухголосый) [DeadSno & den904]
Аудио #2: Японский - DTS / 5.1 / 1509 Kbps / 48.0 KHz

MediaInfo

General
Unique ID : 198885336683831355238304571070441258564 (0x959FEC2BB49AC42881C63F724C5AFE44)
Complete name : C:CREATE264mod1outLupin.III.2014.BDRip.1080p.L2.mkv
Format : Matroska
Format version : Version 4 / Version 2
File size : 11.1 GiB
Duration : 2h 12mn
Overall bit rate : 12.0 Mbps
Movie name : Lupin III (2014)
Encoded date : UTC 2015-03-12 19:53:20
Writing application : mkvmerge v7.7.0 ('Six Voices') 32bit built on Feb 28 2015 23:23:00
Writing library : libebml v1.3.1 + libmatroska v1.4.2
Attachements : cover.jpg
DURATION : 02:02:40.277000000
NUMBER_OF_FRAMES : 1059
NUMBER_OF_BYTES : 23842
_STATISTICS_WRITING_APP : mkvmerge v7.7.0 ('Six Voices') 32bit built on Feb 28 2015 23:23:00
_STATISTICS_WRITING_DATE_UT : 2015-03-12 19:53:20
_STATISTICS_TAGS : BPS DURATION NUMBER_OF_FRAMES NUMBER_OF_BYTES
Video
ID : 1
Format : AVC
Format/Info : Advanced Video Codec
Format profile : High@L4.1
Format settings, CABAC : Yes
Format settings, ReFrames : 5 frames
Codec ID : V_MPEG4/ISO/AVC
Duration : 2h 12mn
Bit rate : 10.3 Mbps
Width : 1 920 pixels
Height : 804 pixels
Display aspect ratio : 2.40:1
Frame rate mode : Constant
Frame rate : 23.976 fps
Color space : YUV
Chroma subsampling : 4:2:0
Bit depth : 8 bits
Scan type : Progressive
Bits/(Pixel*Frame) : 0.278
Stream size : 9.31 GiB (84%)
Title : Lupin III (2014)
Writing library : x264 core 129 r2245+704+36 8e61944 tMod+MixAQ [8-bit@4:2:0 X86_64]
Encoding settings : cabac=1 / ref=5 / deblock=1:-3:-3 / analyse=0x3:0x133 / me=umh / subme=11 / psy=1 / fade_compensate=0.00 / psy_rd=1.05:0.10 / mixed_ref=1 / me_range=32 / chroma_me=1 / trellis=2 / 8x8dct=1 / cqm=0 / deadzone=21,11 / fast_pskip=0 / chroma_qp_offset=-3 / threads=18 / lookahead_threads=3 / sliced_threads=0 / nr=0 / decimate=0 / interlaced=0 / bluray_compat=0 / constrained_intra=0 / fgo=0 / bframes=10 / b_pyramid=2 / b_adapt=2 / b_bias=0 / direct=3 / weightb=1 / open_gop=0 / weightp=2 / keyint=250 / keyint_min=23 / scenecut=40 / intra_refresh=0 / rc_lookahead=50 / rc=2pass / mbtree=1 / bitrate=10272 / ratetol=1.0 / qcomp=0.75 / qpmin=0 / qpmax=69 / qpstep=4 / cplxblur=20.0 / qblur=0.5 / ip_ratio=1.40 / aq=3 / aq-strength=0.85 / aq-sensitivity=10.00 / aq-ifactor=1.00 / aq-pfactor=1.00 / aq-bfactor=1.00 / aq2=0
Language : Japanese
Default : Yes
Forced : No
DURATION : 02:12:52.965000000
NUMBER_OF_FRAMES : 191160
NUMBER_OF_BYTES : 10234182736
_STATISTICS_WRITING_APP : mkvmerge v7.7.0 ('Six Voices') 32bit built on Feb 28 2015 23:23:00
_STATISTICS_WRITING_DATE_UT : 2015-03-12 19:53:20
_STATISTICS_TAGS : BPS DURATION NUMBER_OF_FRAMES NUMBER_OF_BYTES
Audio #1
ID : 2
Format : AC-3
Format/Info : Audio Coding 3
Mode extension : CM (complete main)
Format settings, Endianness : Big
Codec ID : A_AC3
Duration : 2h 12mn
Bit rate mode : Constant
Bit rate : 192 Kbps
Channel(s) : 2 channels
Channel positions : Front: L R
Sampling rate : 48.0 KHz
Bit depth : 16 bits
Compression mode : Lossy
Stream size : 182 MiB (2%)
Title : DVO [DeadSno & den904]
Language : Russian
Default : No
Forced : No
Audio #2
ID : 3
Format : DTS
Format/Info : Digital Theater Systems
Mode : 16
Format settings, Endianness : Big
Codec ID : A_DTS
Duration : 2h 12mn
Bit rate mode : Constant
Bit rate : 1 509 Kbps
Channel(s) : 6 channels
Channel positions : Front: L C R, Side: L R, LFE
Sampling rate : 48.0 KHz
Bit depth : 16 bits
Compression mode : Lossy
Stream size : 1.40 GiB (13%)
Language : Japanese
Default : Yes
Forced : No
Text #1
ID : 4
Format : UTF-8
Codec ID : S_TEXT/UTF8
Codec ID/Info : UTF-8 Plain Text
Title : Simplified
Language : Chinese
Default : Yes
Forced : No
Text #2
ID : 5
Format : UTF-8
Codec ID : S_TEXT/UTF8
Codec ID/Info : UTF-8 Plain Text
Title : Traditional
Language : Chinese
Default : No
Forced : No
Menu
00:00:00.000 : en:00:00:00.000
00:10:24.915 : en:00:10:24.915
00:19:10.941 : en:00:19:10.941
00:31:02.402 : en:00:31:02.402
00:44:51.772 : en:00:44:51.772
00:54:04.908 : en:00:54:04.908
01:06:55.261 : en:01:06:55.261
01:19:50.535 : en:01:19:50.535
01:31:46.792 : en:01:31:46.792
01:40:58.427 : en:01:40:58.427
01:53:00.773 : en:01:53:00.773
02:04:26.459 : en:02:04:26.459
02:12:51.964 : en:02:12:51.964

Скриншоты

[Профиль] [ЛС]
Показать сообщения:    

Текущее время: Сегодня 08:34

Часовой пояс: GMT



Вы не можете начинать темы
Вы не можете отвечать на сообщения
Вы не можете редактировать свои сообщения
Вы не можете удалять свои сообщения
Вы не можете голосовать в опросах
Вы не можете прикреплять файлы к сообщениям
Вы не можете скачивать файлы