Людu в чeрнoм 3 3Д / Mеn in Blасk 3 3D (Барри Зонненфельд / Barry Sonnenfeld) [2012, Фантастика, Боевик, Комедия, Приключения, BDrip, 1080p] OverUnder / Вертикальная стереопара

 
Автор Сообщение

TorrentFilm ®

Пол:

Стаж: 2 года

Сообщений: 7741



Награды: Нет

Торрент-статистика

Создавать темы 02-Янв-2016 00:00

[Цитировать]

Людu в чepнoм 3 / Меn in Вlасk 3
Год выпуска: 2012
Страна: США
Студия: Columbia Pictures, P+M Image Nation, Hemisphere Me
Жанр: Фантастика, Боевик, Комедия, Приключения
Продолжительность: 01:45:47
Перевод: Профессиональный (дублированный)
Русские субтитры: нет
Режиссер на русском: Барри Зонненфельд
Режиссер на английском: Barry Sonnenfeld
В ролях: Уилл Смит, Джош Бролин, Томми Ли Джонс, Джемейн Клемент, Майкл Стулбарг, Эмма Томпсон, Элис Ив, Майк Колтер, Билл Хэйдер, Майкл Чернус
Описание: Агент Джей узнает, что никакого защитного галактического щита, способного отразить иноземный удар, не существует. Агент Кей не построил его, потому что был убит в 1969 году. Агент Джей должен совершить путешествие во времени, чтобы спасти Землю и жизнь напарника.
Сэмпл: http://www.sendspace.com/file/1qxo51
Качество: BDrip
Контейнер: MKV
Формат 3D: OverUnder / Вертикальная стереопара
Порядок ракурсов: левый ракурс первый
Видео кодек: x264
Аудио кодек: AC3
Видео: AVC / 23,976 fps / 1920х2080 / 30.9 Mbps
Аудио: Русский / AC3 / 48 KHz / 5.1 ch / 640 Kbps
Аудио 2: Украинский / AC3 / 48 KHz / 5.1 ch / 640 Kbps
Аудио 3: Английский / AC3 / 48 KHz / 5.1 ch / 640 Kbps
ВНИМАНИЕ ! :На встроенных ТВ-плейерах работать не будет!!!
Железные плееры на которых воспроизводятся полные стереопары:Popcorn C-200 , Dune HD Smart D1 , Dune HD DUO , Dune HD Smart H1 , Dune HD Smart B1 , Dune HD Max.

MediaInfo

General
Unique ID : 194418516676516057408250938198506513573 (0x9243A4F0EA239420B9A2CEC1C38EA4A5)
Complete name : J:\Фильмы\3Д\Men in Black 3.mkv
Format : Matroska
Format version : Version 2
File size : 24.7 GiB
Duration : 1h 45mn
Overall bit rate : 33.5 Mbps
Encoded date : UTC 2012-09-12 19:20:41
Writing application : mkvmerge v3.4.0 ('Rapunzel') сборка от May 15 2010 09:38:20
Writing library : libebml v0.8.0 + libmatroska v0.9.0
Video
ID : 1
Format : AVC
Format/Info : Advanced Video Codec
Format profile : High@L5.0
Format settings, CABAC : Yes
Format settings, ReFrames : 4 frames
Codec ID : V_MPEG4/ISO/AVC
Duration : 1h 45mn
Bit rate : 30.9 Mbps
Width : 1 920 pixels
Height : 2 080 pixels
Display aspect ratio : 0.923
Frame rate mode : Constant
Frame rate : 23.976 fps
Color space : YUV
Chroma subsampling : 4:2:0
Bit depth : 8 bits
Scan type : Progressive
Bits/(Pixel*Frame) : 0.322
Stream size : 22.8 GiB (92%)
Title : Rip by SeRoGa00
Writing library : x264 core 125 r2208kMod d9d2288
Encoding settings : cabac=1 / ref=4 / deblock=1:-2:-2 / analyse=0x3:0x133 / me=umh / subme=9 / psy=1 / fade_compensate=0.00 / psy_rd=1.00:0.25 / mixed_ref=1 / me_range=16 / chroma_me=1 / trellis=2 / 8x8dct=1 / cqm=0 / deadzone=6,6 / fast_pskip=1 / chroma_qp_offset=-4 / threads=9 / lookahead_threads=1 / sliced_threads=0 / nr=0 / decimate=0 / interlaced=0 / bluray_compat=0 / constrained_intra=0 / bframes=6 / b_pyramid=2 / b_adapt=2 / b_bias=0 / direct=3 / weightb=1 / open_gop=0 / weightp=2 / keyint=250 / keyint_min=23 / scenecut=40 / intra_refresh=0 / rc_lookahead=60 / rc=crf / mbtree=1 / crf=18.0000 / qcomp=0.80 / qpmin=10 / qpmax=69 / qpstep=4 / vbv_maxrate=40000 / vbv_bufsize=40000 / crf_max=0.0 / nal_hrd=none / ip_ratio=1.10 / aq=1:0.50
Language : English
Default : Yes
Forced : No
Audio #1
ID : 2
Format : AC-3
Format/Info : Audio Coding 3
Mode extension : CM (complete main)
Format settings, Endianness : Big
Codec ID : A_AC3
Duration : 1h 45mn
Bit rate mode : Constant
Bit rate : 640 Kbps
Channel(s) : 6 channels
Channel positions : Front: L C R, Side: L R, LFE
Sampling rate : 48.0 KHz
Bit depth : 16 bits
Compression mode : Lossy
Stream size : 484 MiB (2%)
Language : Russian
Default : Yes
Forced : No
Audio #2
ID : 3
Format : AC-3
Format/Info : Audio Coding 3
Mode extension : CM (complete main)
Format settings, Endianness : Big
Codec ID : A_AC3
Duration : 1h 45mn
Bit rate mode : Constant
Bit rate : 640 Kbps
Channel(s) : 6 channels
Channel positions : Front: L C R, Side: L R, LFE
Sampling rate : 48.0 KHz
Bit depth : 16 bits
Compression mode : Lossy
Stream size : 484 MiB (2%)
Language : Ukrainian
Default : No
Forced : No
Audio #3
ID : 4
Format : AC-3
Format/Info : Audio Coding 3
Mode extension : CM (complete main)
Format settings, Endianness : Big
Codec ID : A_AC3
Duration : 1h 45mn
Bit rate mode : Constant
Bit rate : 640 Kbps
Channel(s) : 6 channels
Channel positions : Front: L C R, Side: L R, LFE
Sampling rate : 48.0 KHz
Bit depth : 16 bits
Compression mode : Lossy
Stream size : 484 MiB (2%)
Language : English
Default : No
Forced : No

Скриншоты


[Профиль] [ЛС]
Кто просматривает тему:

Показать сообщения:    

Текущее время: Сегодня 14:48

Часовой пояс: GMT



Вы не можете начинать темы
Вы не можете отвечать на сообщения
Вы не можете редактировать свои сообщения
Вы не можете удалять свои сообщения
Вы не можете голосовать в опросах
Вы не можете прикреплять файлы к сообщениям
Вы не можете скачивать файлы