Людоед / Ravenous (1999) BDRip 1080p от MediaClub | P, A

 
Автор Сообщение

sergej644 ®

Пол:

Стаж: 4 года 11 месяцев

Сообщений: 6040

Откуда: Soviet Union



Награды: Нет

Торрент-статистика

Создавать темы 21-Янв-2015 00:00

[Цитировать]

Информация о фильме
Название: Людоед
Оригинальное название: Ravenous
Год выпуска: 1999
Жанр: Триллер, мистика, ужасы
Режиссер: Антония Бёрд
В ролях: Гай Пирс, Роберт Карлайл, Джеффри Джонс, Нил МакДоноф, Джон Спенсер, Стивен Спинелла, Дэвид Аркетт, Джереми Дэвис, Шила Таузи, Билл Прочтрап, Джозеф Раннинг Фокс
Описание: Действие фильма происходит в 1847 году, в период войны Америки с Мексикой. Капитана Джона Бойда чествуют и награждают различными медалями, однако он не рад этим обстоятельствам. Причиной его чествования стал захват ставки противника в одиночку, но только он один знает все обстоятельства столь смелого поступка — он просто струсил, бросил оружие и притворился мёртвым. Так он пролежал длительное время среди мёртвых товарищей, а впоследствии в состоянии аффекта поубивал всех неприятелей. Однако продвижения по службе Джон не получил, вместо этого его направляют в одинокий форт в горах Калифорнии. Через некоторое время в форт приходит оборванный и изголодавшийся мужчина по имени Калхун. Из его истории становится ясно, что он был членом каравана, который вёл проводник. Проводник заблудился и люди, в связи с наступившей зимой, поселились в пещере. Однако запасов еды было мало и в тот момент, когда они кончились люди начали поедать друг друга. Калхуну удалось бежать.

Выпущено: США, Великобритания, Чехия / 20th Century Fox
Продолжительность: 01:40:55
Перевод: Профессиональный многоголосый, авторский
Файл
Качество: BDRip 1080p
Видео: MPEG-4 AVC, 9500 Кбит/с, 1912x812, 23.976 кадр/с
Аудио #1: Русский (AC3, 6 ch, 448 Кбит/с) / Профессиональный многоголосый
Аудио #2: Русский (AC3, 6 ch, 448 Кбит/с) / Авторский одноголосый (Пучков-Гоблин)
Аудио #3: Английский (DTS, 6 ch, 1509 Кбит/с)
Субтитры: Русские, английские
Семпл

Скриншоты



О релизе

За блюр спасибо Lazers

MI

x264 [info]: frame I:1136 Avg QP:16.53 size:215366
x264 [info]: frame P:34064 Avg QP:18.97 size: 84544
x264 [info]: frame B:109976 Avg QP:21.21 size: 36940
x264 [info]: consecutive B-frames: 2.4% 4.0% 9.5% 28.1% 19.2% 27.3% 7.3% 1.3% 0.9%
******************************************************************************************************
Общее
Уникальный идентификатор : 226936413641248886866324285493433115231 (0xAABA5D0B15138515AE6C48CB07ECA25F)
Полное имя : D:Mои раздачиLudoed.1999.BDRip.1080p-MediaClub.mkv
Формат : Matroska
Версия формата : Version 4 / Version 2
Размер файла : 8,39 Гбайт
Продолжительность : 1 ч. 40 м.
Общий поток : 11,9 Мбит/сек
Название фильма : -=MediaClub-kaspr=-
Дата кодирования : UTC 2014-05-29 10:31:34
Программа кодирования : mkvmerge v6.9.1 ('Blue Panther') 64bit built on Apr 18 2014 18:23:38
Библиотека кодирования : libebml v1.3.0 + libmatroska v1.4.1
Видео
Идентификатор : 1
Формат : AVC
Формат/Информация : Advanced Video Codec
Профиль формата : High@L4.1
Параметр CABAC формата : Да
Параметр ReFrames формата : 5 кадров
Идентификатор кодека : V_MPEG4/ISO/AVC
Продолжительность : 1 ч. 40 м.
Битрейт : 9500 Кбит/сек
Ширина : 1912 пикселей
Высота : 812 пикселей
Соотношение сторон : 2,35:1
Режим частоты кадров : Постоянный
Частота кадров : 23,976 кадра/сек
Цветовое пространство : YUV
Субдискретизация насыщенности : 4:2:0
Битовая глубина : 8 бит
Тип развёртки : Прогрессивная
Бит/(Пиксели*Кадры) : 0.255
Размер потока : 6,53 Гбайт (78%)
Заголовок : -=MediaClub-kaspr=-
Библиотека кодирования : x264 core 142 r2431+42 c69a006 tMod [8-bit@4:2:0 X86_64]
Настройки программы : cabac=1 / ref=5 / deblock=1:-3:-3 / analyse=0x3:0x113 / me=umh / subme=11 / psy=1 / fade_compensate=0.00 / psy_rd=1.00:0.20 / mixed_ref=1 / me_range=32 / chroma_me=1 / trellis=2 / 8x8dct=1 / cqm=0 / deadzone=21,11 / fast_pskip=0 / chroma_qp_offset=-3 / threads=12 / lookahead_threads=2 / sliced_threads=0 / nr=0 / decimate=0 / interlaced=0 / bluray_compat=0 / constrained_intra=0 / fgo=0 / bframes=8 / b_pyramid=2 / b_adapt=2 / b_bias=0 / direct=3 / weightb=1 / open_gop=0 / weightp=2 / keyint=240 / keyint_min=23 / scenecut=40 / intra_refresh=0 / rc=2pass / mbtree=0 / bitrate=9500 / ratetol=1.0 / qcomp=0.60 / qpmin=0:0:0 / qpmax=69:69:69 / qpstep=4 / cplxblur=20.0 / qblur=0.5 / ip_ratio=1.40 / pb_ratio=1.30 / aq=4:0.80 / aq-sensitivity=10.00 / aq-factor=1.00:1.00:1.00 / aq2=0 / aq3=0
Default : Да
Forced : Да
Аудио #1
Идентификатор : 2
Формат : AC-3
Формат/Информация : Audio Coding 3
Расширение режима : CM (complete main)
Параметр Endianness формата : Big
Идентификатор кодека : A_AC3
Продолжительность : 1 ч. 40 м.
Вид битрейта : Постоянный
Битрейт : 448 Кбит/сек
Каналы : 6 каналов
Расположение каналов : Front: L C R, Side: L R, LFE
Частота : 48,0 КГц
Битовая глубина : 16 бит
Метод сжатия : С потерями
Размер потока : 323 Мбайт (4%)
Заголовок : MVO
Язык : Russian
Default : Да
Forced : Да
Аудио #2
Идентификатор : 3
Формат : AC-3
Формат/Информация : Audio Coding 3
Расширение режима : CM (complete main)
Параметр Endianness формата : Big
Идентификатор кодека : A_AC3
Продолжительность : 1 ч. 40 м.
Вид битрейта : Постоянный
Битрейт : 448 Кбит/сек
Каналы : 6 каналов
Расположение каналов : Front: L C R, Side: L R, LFE
Частота : 48,0 КГц
Битовая глубина : 16 бит
Метод сжатия : С потерями
Размер потока : 323 Мбайт (4%)
Заголовок : Пучков
Язык : Russian
Default : Нет
Forced : Нет
Аудио #3
Идентификатор : 4
Формат : DTS
Формат/Информация : Digital Theater Systems
Режим : 16
Параметр Endianness формата : Big
Идентификатор кодека : A_DTS
Продолжительность : 1 ч. 40 м.
Вид битрейта : Постоянный
Битрейт : 1509 Кбит/сек
Каналы : 6 каналов
Расположение каналов : Front: L C R, Side: L R, LFE
Частота : 48,0 КГц
Битовая глубина : 24 бит
Метод сжатия : С потерями
Размер потока : 1,06 Гбайт (13%)
Язык : English
Default : Нет
Forced : Нет
Текст #1
Идентификатор : 5
Формат : UTF-8
Идентификатор кодека : S_TEXT/UTF8
Идентификатор кодека/Информация : UTF-8 Plain Text
Язык : Russian
Default : Нет
Forced : Нет
Текст #2
Идентификатор : 6
Формат : UTF-8
Идентификатор кодека : S_TEXT/UTF8
Идентификатор кодека/Информация : UTF-8 Plain Text
Язык : English
Default : Нет
Forced : Нет
Меню
00:00:00.000 : en:Chapter 01
00:09:15.554 : en:Chapter 02
00:15:28.552 : en:Chapter 03
00:22:47.574 : en:Chapter 04
00:31:13.621 : en:Chapter 05
00:39:54.892 : en:Chapter 06
00:46:21.779 : en:Chapter 07
00:52:21.221 : en:Chapter 08
01:00:48.186 : en:Chapter 09
01:09:50.019 : en:Chapter 10
01:16:46.143 : en:Chapter 11
01:22:22.854 : en:Chapter 12
01:37:03.818 : en:Chapter 13
Релиз: |
[Профиль] [ЛС]
Кто просматривает тему:

Форум Тема Автор Размер
Фильмы 2013 года Зеленый ад / Людоеды / The Green Inferno (2013) WEB-DLRip | L1 BOSS 2.05 GB
Показать сообщения:    

Текущее время: Сегодня 10:50

Часовой пояс: GMT



Вы не можете начинать темы
Вы не можете отвечать на сообщения
Вы не можете редактировать свои сообщения
Вы не можете удалять свои сообщения
Вы не можете голосовать в опросах
Вы не можете прикреплять файлы к сообщениям
Вы не можете скачивать файлы