Люди, места, вещи / People Places Things (Джеймс С. Страуз / James C. Strouse) [2015, США, Лирическая комедия, психологическая драма, WEB-DLRip] DVO + Sub Rus, Eng + Original Eng

 
Автор Сообщение

TorrentFilm ®

Пол:

Стаж: 2 года

Сообщений: 7741



Награды: Нет

Торрент-статистика

Создавать темы 28-Дек-2015 00:13

[Цитировать]

Люди, места, вещи / People Places Things
Страна: США
Жанр: Лирическая комедия, психологическая драма
Год выпуска: 2015
Продолжительность: 01:26:39
Перевод: Профессиональный (двухголосый закадровый)
Cубтитры: русские, английские (SubRip format) отдельно вложенные
Оригинальная аудиодорожка: английский отдельно вложенная
Режиссёр и сценарист: Джеймс С. Страуз / James C. Strouse
Актёры: Джемейн Клемент, Реджина Холл, Джессика УилефанияСтефания Эллайнн, Майкл Чернус, Ондреа Гадсби, Гия Гадсби, Деррик Артур, Селия Ау, Катрин Кэйн, и др.
Краткая аннотация: Любимая женщина рисовальщика комиксов, подкинула ему тему для очередного сюжета... После многолетних раздумий и колебаний, попутно родив от него двоих прекрасных дочерей, она решилась выйти замуж... Только почему-то не за рисовальщика комиксов, хотя по прежнему всё ещё любит его...

Качество видео: WEB-DLRip
Формат видео: AVI
Video: 720x400 (1.80:1), 23.976 fps, XviD build 73 ~2049 kbps avg, 0.30 bit/pixel
Audio #1: 48 kHz, AC3 Dolby Digital, 3/2 (L,C,R,l,r) + LFE ch, ~384 kbps
Audio #2: 48 kHz, AC3 Dolby Digital, 3/2 (L,C,R,l,r) + LFE ch, ~384 kbps отдельно

AviInfo

File: People_Places_Things_2015_WEB-DLRip.aviTitle: People_Places_Things_2015_WEB-DLRipAuthor: OGORODNIKOFFFCopyleft: torrentfilm.netGenre: Комедия, драмаCategory: Фильмы 2015Comment: Дата рипа 26 декабря 2015 годаFilesize: 1514.04 Mb ( 1 587 587 072 bytes )Play length: 01:26:39.035 (124652 frames)Subtitles: eng, rus (SubRip format)Video: 720x400 (1.80:1), 23.976 fps, XviD build 73 ~2049 kbps avg, 0.30 bit/pixelAudio: 48 kHz, AC3 Dolby Digital, 3/2 (L,C,R,l,r) + LFE ch, ~384 kbps

MediaInfo

ОбщееПолное имя : V:\People_Places_Things_2015_WEB-DLRip_[torrentfilm.net]\People_Places_Things_2015_WEB-DLRip.aviФормат : AVIФормат/Информация : Audio Video InterleaveРазмер файла : 1,48 ГбайтПродолжительность : 1 ч. 26 м.Общий поток : 2443 Кбит/секНазвание фильма : People_Places_Things_2015_WEB-DLRipРежиссёр : OGORODNIKOFFFЖанр : Комедия, драмаПрограмма кодирования : Vir : VirtualDubModRus 1.5.10.2 (build 2542/release)Формат оригинала/Имя : Фильмы 2015Правообладатель : torrentfilm.netПримечание : Дата рипа 26 декабря 2015 года
ВидеоИдентификатор : 0Формат : MPEG-4 VisualПрофиль формата : Advanced Simple@L5Параметр BVOP формата : 1Параметр QPel формата : НетПараметр GMC формата : Без точки переходаПараметр матрицы формата : Default (MPEG)Идентификатор кодека : DX50Идентификатор кодека/Подсказка : DivX 5Продолжительность : 1 ч. 26 м.Битрейт : 2050 Кбит/секШирина : 720 пикселейВысота : 400 пикселейСоотношение сторон : 16:9Частота кадров : 23,976 кадра/секЦветовое пространство : YUVСубдискретизация насыщенности : 4:2:0Битовая глубина : 8 битТип развёртки : ПрогрессивнаяМетод сжатия : С потерямиБит/(Пиксели*Кадры) : 0.297Размер потока : 1,24 Гбайт (84%)Библиотека кодирования : XviD 73
АудиоИдентификатор : 1Формат : AC-3Формат/Информация : Audio Coding 3Расширение режима : CM (complete main)Параметр Endianness формата : BigИдентификатор кодека : 2000Продолжительность : 1 ч. 26 м.Вид битрейта : ПостоянныйБитрейт : 384 Кбит/секКаналы : 6 каналовРасположение каналов : Front: L C R, Side: L R, LFEЧастота : 48,0 КГцБитовая глубина : 16 битМетод сжатия : С потерямиРазмер потока : 238 Мбайт (16%)Выравнивание : Разделение по промежуткамПродолжительность промежутка : 42 мс. (1,00 видеокадр)Время предзагрузки промежутка : 500 мс.
ОбщееПолное имя : V:\People_Places_Things_2015_WEB-DLRip_[torrentfilm.net]\People_Places_Things_2015_WEB-DLRip.eng.ac3Формат : AC-3Формат/Информация : Audio Coding 3Размер файла : 238 МбайтПродолжительность : 1 ч. 26 м.Режим общего битрейта : ПостоянныйОбщий поток : 384 Кбит/сек
АудиоФормат : AC-3Формат/Информация : Audio Coding 3Расширение режима : CM (complete main)Параметр Endianness формата : BigПродолжительность : 1 ч. 26 м.Вид битрейта : ПостоянныйБитрейт : 384 Кбит/секКаналы : 6 каналовРасположение каналов : Front: L C R, Side: L R, LFEЧастота : 48,0 КГцБитовая глубина : 16 битМетод сжатия : С потерямиРазмер потока : 238 Мбайт (100%)
ОбщееПолное имя : V:\People_Places_Things_2015_WEB-DLRip_[torrentfilm.net]\People_Places_Things_2015_WEB-DLRip.eng.srtФормат : SubRipРазмер файла : 106 Кбайт
ТекстФормат : SubRipМетод сжатия : Без потерь
ОбщееПолное имя : V:\People_Places_Things_2015_WEB-DLRip_[torrentfilm.net]\People_Places_Things_2015_WEB-DLRip.rus.srtФормат : SubRipРазмер файла : 79,6 Кбайт
ТекстФормат : SubRipМетод сжатия : Без потерь

Скриншот c названием фильма

Скриншоты

Время раздачи - по возможности.
[Профиль] [ЛС]
Показать сообщения:    

Текущее время: Сегодня 00:34

Часовой пояс: GMT



Вы не можете начинать темы
Вы не можете отвечать на сообщения
Вы не можете редактировать свои сообщения
Вы не можете удалять свои сообщения
Вы не можете голосовать в опросах
Вы не можете прикреплять файлы к сообщениям
Вы не можете скачивать файлы