Люди Икс: Начало. Росомаха / X-Men Origins: Wolverine (Гэвин Худ / Gavin Hood) [2009, США, фантастика, боевик, триллер, приключения, HDTVRip] Dub

 
Автор Сообщение

TorrentFilm ®

Пол:

Стаж: 2 года

Сообщений: 7741



Награды: Нет

Торрент-статистика

Создавать темы 27-Фев-2015 00:01

[Цитировать]

Люди Икс: Начало. Росомаха / X-Men Origins: Wolverine
Страна: США
Жанр: фантастика, боевик, триллер, приключения
Год выпуска: 2009
Продолжительность: 01:38:21
Перевод: Профессиональный (дублированный)
Cубтитры: нет
Оригинальная аудиодорожка: нет
Режиссер: Гэвин Худ / Gavin Hood
В ролях: Хью Джекман, Лив Шрайбер, Дэнни Хьюстон, Уилл Ай Эм, Линн Коллинз, Кевин Дюран, Доминик Монаган, Тейлор Китч, Дэниэл Хенни, Райан Рейнольдс, Тим Пакок, Джулия Блейк, Макс Каллен, Трой Сиван, Майкл-Джеймс Олсен, Питер О’Брайэн, Аарон Джеффри, Элис Паркинсон, Филип Паттерсон, Энтони Ги, Эделейд Клеменс, Карл Битти, Том О’Салливан, Майлс Поллард, Стефен Андертон, Крис Садринна, Септимус Катон, Мэттью Дэйл, Натин Батлер, Питер Бэрри, Дэвид Ричи, Ашер Кедди, Сократис
Описание: Фильм рассказывает о неистовом и романтичном прошлом Росомахи, его сложных отношениях с Виктором Кридом и о зловещей программе Оружие Х. При этом Росомаха встречается со многими мутантами, уже знакомыми и новыми, и узнает несколько легенд о мире Людей Икс.
Доп. информация: Рип с канала Первый HD. Из видеоряда удален логотип канала, остались послерекламные вставки с названием фильма. HDTV имеет иное наполнение кадра, чем BD:

Сравнение с BD

BD.................................HDTV


Сэмпл: http://multi-up.com/1033891
Качество видео: HDTVRip
Формат видео: AVI
Видео: MPEG4, XviD, 720x400 (16/9), 25.000 fps, 1 912 Kbps (0.266 bit/pixel)
Аудио: AC-3, 48.0 KHz, 2 ch, 192 Kbps, CBR

MediaInfo

Общее
Полное имя : K:\Люди Икс - Начало. Росомаха.avi
Формат : AVI
Формат/Информация : Audio Video Interleave
Размер файла : 1,45 Гбайт
Продолжительность : 1 ч. 38 м.
Общий поток : 2113 Кбит/сек
Название фильма : Люди Икс: Начало. Росомаха / X-Men Origins: Wolverine (2009)
Программа кодирования : VirtualDubMod 1.5.10.2 (build 2540/release)
Библиотека кодирования : VirtualDubMod build 2540/release
Правообладатель : miha2154
Видео
Идентификатор : 0
Формат : MPEG-4 Visual
Профиль формата : Advanced Simple@L5
Параметр BVOP формата : 1
Параметр QPel формата : Нет
Параметр GMC формата : Без точки перехода
Параметр матрицы формата : Выборочная
Идентификатор кодека : XVID
Идентификатор кодека/Подсказка : XviD
Продолжительность : 1 ч. 38 м.
Битрейт : 1912 Кбит/сек
Ширина : 720 пикселей
Высота : 400 пикселей
Соотношение сторон : 16:9
Частота кадров : 25,000 кадров/сек
Цветовое пространство : YUV
Субдискретизация насыщенности : 4:2:0
Битовая глубина : 8 бит
Тип развёртки : Прогрессивная
Метод сжатия : С потерями
Бит/(Пиксели*Кадры) : 0.266
Размер потока : 1,31 Гбайт (90%)
Библиотека кодирования : XviD 65
Аудио
Идентификатор : 1
Формат : AC-3
Формат/Информация : Audio Coding 3
Расширение режима : CM (complete main)
Параметр Endianness формата : Big
Идентификатор кодека : 2000
Продолжительность : 1 ч. 38 м.
Вид битрейта : Постоянный
Битрейт : 192 Кбит/сек
Каналы : 2 канала
Расположение каналов : Front: L R
Частота : 48,0 КГц
Битовая глубина : 16 бит
Метод сжатия : С потерями
Размер потока : 135 Мбайт (9%)
Выравнивание : Разделение по промежуткам
Продолжительность промежутка : 40 мс. (1,00 видеокадр)
Время предзагрузки промежутка : 500 мс.
Заголовок : Профессиональный (полное дублирование)

Скриншоты


[Профиль] [ЛС]

Создавать темы 06-Авг-2015 22:42 (спустя 5 месяцев 7 дней)

Топик был перенесен из форума Фильмы до 2014 года в форум Фильмы до 2012 года
sergej644
 

Создавать темы 12-Июн-2016 08:49 (спустя 1 год 3 месяца)

Топик был перенесен из форума Фильмы 2011 года в форум Фильмы 2009 года
Russian Mafia
 
Кто просматривает тему:

Показать сообщения:    

Текущее время: Сегодня 03:23

Часовой пояс: GMT



Вы не можете начинать темы
Вы не можете отвечать на сообщения
Вы не можете редактировать свои сообщения
Вы не можете удалять свои сообщения
Вы не можете голосовать в опросах
Вы не можете прикреплять файлы к сообщениям
Вы не можете скачивать файлы