Люди Икс: Дни минувшего будущего / X-Men: Days of Future Past (2014) BDRip 720p от MediaClub | D, A

 
Автор Сообщение

sergej644 ®

Пол:

Стаж: 4 года 11 месяцев

Сообщений: 6043

Откуда: Soviet Union



Награды: Нет

Торрент-статистика

Создавать темы 10-Фев-2015 14:02

[Цитировать]

Информация о фильме
Название: Люди Икс: Дни минувшего будущего
Оригинальное название: X-Men: Days of Future Past
Год выхода: 2014
Жанр: Фантастика, фэнтези, боевик, приключения
Режиссер: Брайан Сингер
В ролях: Хью Джекман, Иэн МакКеллен, Патрик Стюарт, Холли Берри, Майкл Фассбендер, Джеймс МакЭвой, Анна Пакуин, Эллен Пейдж, Шон Эшмор, Дженнифер Лоуренс, Николас Холт, Питер Динклэйдж, Омар Си, Бинбин Фань
О фильме:
В недалёком будущем мутанты близки к истреблению роботами-охотниками на мутантов Стражами. Единственная надежда для мутантов выжить — предотвратить череду роковых событий, приведших к появлению Стражей. С помощью своих способностей, Китти Прайд перемещает сознание Росомахи в его молодое тело в 1973 год. В прошлом всё оказывается не так радужно: молодой Профессор Икс окончательно разочарован в своих идеях, Магнето содержится в тюрьме глубоко под землёй, а человечество не знает как реагировать на широкое появление мутантов…
Страна: США
Студия: 20th Century Fox Film Corporation, Bad Hat Harry Productions, Marvel Entertainment, Marv Films, Dune Entertainment
Продолжительность: 02:11:35
Перевод: Дублированный, авторский
Кодек: x264
Качество: BDRip 720p
Видео: MPEG-4 AVC, 3500 Кбит/с, 1280x534, 23.976 Кадр/с
Звук:
Аудио #1: Русский (DTS, 6 ch, 768 Кбит/с) / Дублированный (Blu-ray CEE)
Аудио #2: Русский (AC3, 6 ch, 448 Кбит/с) / Авторский одноголосый (Вадим Белов)
Аудио #3: Украинский (AC3, 6 ch, 448 Кбит/с) / Дублированный (Blu-ray CEE)
Аудио #4: Английский (DTS, 6 ch, 1510 Кбит/c)
Субтитры: Русский (Forced, full), украинские, английский (Forced, full, SDH)
Семпл

log x264

raw [info]: 1280x534p 1:1 @ 24000/1001 fps (cfr)
x264 [info]: using SAR=1/1
x264 [info]: using cpu capabilities: MMX2 SSE2Fast SSSE3 SSE4.2 AVX AVX2 FMA3 LZCNT BMI2
x264 [info]: profile High, level 4.1
x264 [info]: frame I:1961 Avg QP:15.89 size:105853
x264 [info]: frame P:48387 Avg QP:18.86 size: 33718
x264 [info]: frame B:138950 Avg QP:20.03 size: 11622
x264 [info]: consecutive B-frames: 4.5% 7.5% 11.5% 18.7% 16.9% 32.5% 4.8% 1.0% 0.8% 0.6% 1.3%
x264 [info]: mb I I16..4: 14.6% 66.6% 18.8%
x264 [info]: mb P I16..4: 1.3% 14.4% 1.6% P16..4: 29.3% 33.2% 11.3% 1.7% 0.2% skip: 7.0%
x264 [info]: mb B I16..4: 0.1% 1.5% 0.1% B16..8: 35.4% 20.7% 3.4% direct: 5.5% skip:33.2% L0:43.7% L1:44.7% BI:11.7%
x264 [info]: 8x8 transform intra:81.0% inter:57.4%
x264 [info]: direct mvs spatial:97.5% temporal:2.5%
x264 [info]: coded y,uvDC,uvAC intra: 87.1% 85.3% 65.5% inter: 25.8% 24.4% 11.2%
x264 [info]: i16 v,h,dc,p: 23% 10% 17% 50%
x264 [info]: i8 v,h,dc,ddl,ddr,vr,hd,vl,hu: 11% 7% 10% 10% 13% 12% 13% 11% 13%
x264 [info]: i4 v,h,dc,ddl,ddr,vr,hd,vl,hu: 17% 8% 7% 8% 13% 13% 12% 10% 11%
x264 [info]: i8c dc,h,v,p: 44% 23% 17% 17%
x264 [info]: Weighted P-Frames: Y:15.1% UV:9.9%
x264 [info]: ref P L0: 46.8% 9.7% 18.8% 7.1% 5.5% 4.2% 3.5% 1.8% 2.0% 0.6% 0.1%
x264 [info]: ref B L0: 70.8% 13.1% 7.0% 3.3% 2.3% 2.1% 1.0% 0.4%
x264 [info]: ref B L1: 92.3% 7.7%
x264 [info]: kb/s:3499.81
encoded 189298 frames, 9.43 fps, 3499.81 kb/s

Инфо-файл

General
Unique ID : 202103830592564258606582126541327114869 (0x980BC82BFF86A339AB9C49329E192275)
Complete name : X-Men.Days.of.Future.Past.2014.BDRip.720p.MediaClub.mkv
Format : Matroska
Format version : Version 4 / Version 2
File size : 6.14 GiB
Duration : 2h 11mn
Overall bit rate : 6 676 Kbps
Movie name : release MediaClub - MINION
Encoded date : UTC 2014-10-03 15:58:50
Writing application : mkvmerge v6.9.1 ('Blue Panther') 64bit built on Apr 18 2014 18:23:38
Writing library : libebml v1.3.0 + libmatroska v1.4.1
Video
ID : 1
Format : AVC
Format/Info : Advanced Video Codec
Format profile : High@L4.1
Format settings, CABAC : Yes
Format settings, ReFrames : 9 frames
Codec ID : V_MPEG4/ISO/AVC
Duration : 2h 11mn
Bit rate : 3 500 Kbps
Width : 1 280 pixels
Height : 534 pixels
Display aspect ratio : 2.40:1
Frame rate mode : Constant
Frame rate : 23.976 fps
Color space : YUV
Chroma subsampling : 4:2:0
Bit depth : 8 bits
Scan type : Progressive
Bits/(Pixel*Frame) : 0.214
Stream size : 3.10 GiB (50%)
Title : X-Men: Days of Future Past 2014 BDRip720p - [MediaClub - MINION]
Writing library : x264 core 142 r2431 ac76440
Encoding settings : cabac=1 / ref=9 / deblock=1:-3:-3 / analyse=0x3:0x133 / me=umh / subme=11 / psy=1 / psy_rd=1.00:0.10 / mixed_ref=1 / me_range=48 / chroma_me=1 / trellis=2 / 8x8dct=1 / cqm=0 / deadzone=21,11 / fast_pskip=0 / chroma_qp_offset=-3 / threads=6 / lookahead_threads=1 / sliced_threads=0 / nr=0 / decimate=0 / interlaced=0 / bluray_compat=0 / constrained_intra=0 / bframes=10 / b_pyramid=2 / b_adapt=2 / b_bias=0 / direct=3 / weightb=1 / open_gop=0 / weightp=2 / keyint=240 / keyint_min=23 / scenecut=40 / intra_refresh=0 / rc=2pass / mbtree=0 / bitrate=3500 / ratetol=1.0 / qcomp=0.60 / qpmin=10 / qpmax=51 / qpstep=4 / cplxblur=20.0 / qblur=0.5 / ip_ratio=1.40 / pb_ratio=1.30 / aq=1:1.00
Language : English
Default : Yes
Forced : No
Audio #1
ID : 2
Format : DTS
Format/Info : Digital Theater Systems
Mode : 16
Format settings, Endianness : Big
Codec ID : A_DTS
Duration : 2h 11mn
Bit rate mode : Constant
Bit rate : 768 Kbps
Channel(s) : 6 channels
Channel positions : Front: L C R, Side: L R, LFE
Sampling rate : 48.0 KHz
Bit depth : 24 bits
Compression mode : Lossy
Stream size : 723 MiB (12%)
Title : DUB - Blu-ray CEE
Language : Russian
Default : Yes
Forced : No
Audio #2
ID : 3
Format : AC-3
Format/Info : Audio Coding 3
Mode extension : CM (complete main)
Format settings, Endianness : Big
Codec ID : A_AC3
Duration : 2h 11mn
Bit rate mode : Constant
Bit rate : 448 Kbps
Channel(s) : 6 channels
Channel positions : Front: L C R, Side: L R, LFE
Sampling rate : 48.0 KHz
Bit depth : 16 bits
Compression mode : Lossy
Stream size : 422 MiB (7%)
Title : AVO - Вадим Белов
Language : Russian
Default : No
Forced : No
Audio #3
ID : 4
Format : AC-3
Format/Info : Audio Coding 3
Mode extension : CM (complete main)
Format settings, Endianness : Big
Codec ID : A_AC3
Duration : 2h 11mn
Bit rate mode : Constant
Bit rate : 448 Kbps
Channel(s) : 6 channels
Channel positions : Front: L C R, Side: L R, LFE
Sampling rate : 48.0 KHz
Bit depth : 16 bits
Compression mode : Lossy
Stream size : 422 MiB (7%)
Title : DUB - Blu-ray CEE
Language : Ukrainian
Default : No
Forced : No
Audio #4
ID : 5
Format : DTS
Format/Info : Digital Theater Systems
Format profile : ES
Mode : 16
Format settings, Endianness : Big
Codec ID : A_DTS
Duration : 2h 11mn
Bit rate mode : Constant
Bit rate : 1 509 Kbps
Channel(s) : 6 channels
Channel positions : Front: L C R, Side: L R, LFE
Sampling rate : 48.0 KHz
Bit depth : 24 bits
Compression mode : Lossy
Stream size : 1.39 GiB (23%)
Language : English
Default : No
Forced : No
Text #1
ID : 6
Format : UTF-8
Codec ID : S_TEXT/UTF8
Codec ID/Info : UTF-8 Plain Text
Title : Forced
Language : Russian
Default : Yes
Forced : No
Text #2
ID : 7
Format : UTF-8
Codec ID : S_TEXT/UTF8
Codec ID/Info : UTF-8 Plain Text
Title : Full
Language : Russian
Default : No
Forced : No
Text #3
ID : 8
Format : UTF-8
Codec ID : S_TEXT/UTF8
Codec ID/Info : UTF-8 Plain Text
Title : Full
Language : Ukrainian
Default : No
Forced : No
Text #4
ID : 9
Format : UTF-8
Codec ID : S_TEXT/UTF8
Codec ID/Info : UTF-8 Plain Text
Title : Forced
Language : English
Default : No
Forced : No
Text #5
ID : 10
Format : UTF-8
Codec ID : S_TEXT/UTF8
Codec ID/Info : UTF-8 Plain Text
Title : Full
Language : English
Default : No
Forced : No
Text #6
ID : 11
Format : UTF-8
Codec ID : S_TEXT/UTF8
Codec ID/Info : UTF-8 Plain Text
Title : SDH
Language : English
Default : No
Forced : No
Menu
00:00:00.000 : en:00:00:00.000
00:03:33.338 : en:00:03:33.338
00:08:00.689 : en:00:08:00.689
00:10:28.628 : en:00:10:28.628
00:13:58.046 : en:00:13:58.046
00:17:02.021 : en:00:17:02.021
00:20:16.090 : en:00:20:16.090
00:22:11.330 : en:00:22:11.330
00:26:37.888 : en:00:26:37.888
00:30:32.039 : en:00:30:32.039
00:34:29.776 : en:00:34:29.776
00:36:00.992 : en:00:36:00.992
00:38:18.087 : en:00:38:18.087
00:40:37.101 : en:00:40:37.101
00:45:53.793 : en:00:45:53.793
00:48:53.848 : en:00:48:53.848
00:51:58.157 : en:00:51:58.157
00:54:43.113 : en:00:54:43.113
00:57:51.426 : en:00:57:51.426
01:00:48.186 : en:01:00:48.186
01:03:26.594 : en:01:03:26.594
01:07:09.567 : en:01:07:09.567
01:09:43.596 : en:01:09:43.596
01:13:11.470 : en:01:13:11.470
01:15:31.861 : en:01:15:31.861
01:17:27.726 : en:01:17:27.726
01:19:30.099 : en:01:19:30.099
01:24:50.711 : en:01:24:50.711
01:26:58.255 : en:01:26:58.255
01:31:04.250 : en:01:31:04.250
01:34:03.680 : en:01:34:03.680
01:37:33.181 : en:01:37:33.181
01:41:54.817 : en:01:41:54.817
01:44:52.995 : en:01:44:52.995
01:47:19.808 : en:01:47:19.808
01:51:29.766 : en:01:51:29.766
01:56:42.746 : en:01:56:42.746
02:00:12.414 : en:02:00:12.414
02:02:34.973 : en:02:02:34.973
02:10:31.907 : en:02:10:31.907

Скриншоты

[Профиль] [ЛС]
Кто просматривает тему:

Показать сообщения:    

Текущее время: Сегодня 06:16

Часовой пояс: GMT



Вы не можете начинать темы
Вы не можете отвечать на сообщения
Вы не можете редактировать свои сообщения
Вы не можете удалять свои сообщения
Вы не можете голосовать в опросах
Вы не можете прикреплять файлы к сообщениям
Вы не можете скачивать файлы