Люди Икс: Дни минувшего будущего / X-Men: Days of Future Past (2014) BDRip 720p | Лицензия

 
Автор Сообщение

sergej644 ®

Пол:

Стаж: 4 года 11 месяцев

Сообщений: 6045

Откуда: Soviet Union



Награды: Нет

Торрент-статистика

Создавать темы 03-Окт-2014 17:12

[Цитировать]

--Люди Икс: Дни минувшего будущего / X-Men: Days of Future Past
Информация о фильме
Название: Люди Икс: Дни минувшего будущего
Оригинальное название: X-Men: Days of Future Past
Год выхода: 2014
Жанр: фантастика, фэнтези, боевик, приключения
Режиссер: Брайан Сингер
В ролях: Майкл Фассбендер, Джеймс МакЭвой, Хью Джекман, Дженнифер Лоуренс, Иэн МакКеллен, Патрик Стюарт, Николас Холт, Эллен Пейдж, Холли Берри, Питер Динклэйдж
О фильме: В недалёком будущем мутанты близки к истреблению роботами-охотниками на мутантов Стражами. Единственная надежда для мутантов выжить - предотвратить череду роковых событий, приведших к появлению Стражей. С помощью своих способностей, Китти Прайд перемещает сознание Росомахи в его молодое тело в 1973 год. В прошлом всё оказывается не так радужно: молодой Профессор Икс окончательно разочарован в своих идеях, Магнето содержится в тюрьме глубоко под землёй, а человечество не знает как реагировать на широкое появление мутантов…

Выпущено: США, Великобритания
Продолжительность: 02:11:35
Перевод: Профессиональный (полное дублирование) - Лицензия
Файл
Качество: BDRip 720p
Формат: MKV
Видео: MPEG4/AVC, 1280x534 (2.40:1), 5140 Кбит/сек, 23.976 кадра/сек
Аудио 1: AC3, 6 каналов, 448 Кбит/сек | Русский
Аудио 2: AC3, 6 каналов, 448 Кбит/сек | Украинский
Аудио 3: AC3, 6 каналов, 448 Кбит/сек | Английский
Субтитры: Русские (форс., полные), украинские, английские (форс., полные, SDH)
Навигация по главам: Есть

MediaInfo:

Общее
Уникальный идентификатор                 : 188953018705236512784238335213290199005 (0x8E27071614B53C1EBE3D53C8D3E117DD)
Полное имя                               : X-Men. Days of Future Past. (2014) BDRip 720p.mkv
Формат                                   : Matroska
Версия формата                           : Version 2
Размер файла                             : 5,96 Гбайт
Продолжительность                        : 2 ч. 11 м.
Общий поток                              : 6486 Кбит/сек
Название фильма                          : X-Men.Days of Future Past. 2014
Дата кодирования                         : UTC 2014-10-03 12:40:12
Программа кодирования                    : mkvmerge v5.8.0 ('No Sleep / Pillow') built on Sep  2 2012 15:37:04
Библиотека кодирования                   : libebml v1.2.3 + libmatroska v1.3.0
Видео
Идентификатор                            : 1
Формат                                   : AVC
Формат/Информация                        : Advanced Video Codec
Профиль формата                          : High@L4.1
Параметр CABAC формата                   : Да
Параметр ReFrames формата                : 11 кадров
Идентификатор кодека                     : V_MPEG4/ISO/AVC
Продолжительность                        : 2 ч. 11 м.
Битрейт                                  : 5140 Кбит/сек
Ширина                                   : 1280 пикселей
Высота                                   : 534 пикселя
Соотношение сторон                       : 2,40:1
Режим частоты кадров                     : Постоянный
Частота кадров                           : 23,976 кадра/сек
Цветовое пространство                    : YUV
Субдискретизация насыщенности            : 4:2:0
Битовая глубина                          : 8 бит
Тип развёртки                            : Прогрессивная
Бит/(Пиксели*Кадры)                      : 0.314
Размер потока                            : 4,61 Гбайт (77%)
Заголовок                                : CHD
Библиотека кодирования                   : x264 core 142 r2431 ac76440
Настройки программы                      : cabac=1 / ref=11 / deblock=1:-3:-3 / analyse=0x3:0x113 / me=umh / subme=10 / psy=1 / psy_rd=1.00:0.05 / mixed_ref=1 / me_range=32 / chroma_me=1 / trellis=2 / 8x8dct=1 / cqm=0 / deadzone=21,11 / fast_pskip=0 / chroma_qp_offset=-2 / threads=18 / lookahead_threads=1 / sliced_threads=0 / nr=0 / decimate=1 / interlaced=0 / bluray_compat=0 / constrained_intra=0 / bframes=4 / b_pyramid=2 / b_adapt=2 / b_bias=0 / direct=3 / weightb=1 / open_gop=0 / weightp=2 / keyint=250 / keyint_min=23 / scenecut=40 / intra_refresh=0 / rc=2pass / mbtree=0 / bitrate=5140 / ratetol=1.0 / qcomp=0.70 / qpmin=0 / qpmax=69 / qpstep=4 / cplxblur=20.0 / qblur=0.5 / ip_ratio=1.40 / pb_ratio=1.30 / aq=2:0.90
Язык                                     : English
Default                                  : Да
Forced                                   : Нет
Аудио #1
Идентификатор                            : 2
Формат                                   : AC-3
Формат/Информация                        : Audio Coding 3
Расширение режима                        : CM (complete main)
Параметр Endianness формата              : Big
Идентификатор кодека                     : A_AC3
Продолжительность                        : 2 ч. 11 м.
Вид битрейта                             : Постоянный
Битрейт                                  : 448 Кбит/сек
Каналы                                   : 6 каналов
Расположение каналов                     : Front: L C R, Side: L R, LFE
Частота                                  : 48,0 КГц
Битовая глубина                          : 16 бит
Метод сжатия                             : С потерями
Размер потока                            : 422 Мбайт (7%)
Заголовок                                : AC3 5.1 | 448 Kbps | BD
Язык                                     : Russian
Default                                  : Да
Forced                                   : Нет
Аудио #2
Идентификатор                            : 3
Формат                                   : AC-3
Формат/Информация                        : Audio Coding 3
Расширение режима                        : CM (complete main)
Параметр Endianness формата              : Big
Идентификатор кодека                     : A_AC3
Продолжительность                        : 2 ч. 11 м.
Вид битрейта                             : Постоянный
Битрейт                                  : 448 Кбит/сек
Каналы                                   : 6 каналов
Расположение каналов                     : Front: L C R, Side: L R, LFE
Частота                                  : 48,0 КГц
Битовая глубина                          : 16 бит
Метод сжатия                             : С потерями
Размер потока                            : 422 Мбайт (7%)
Заголовок                                : AC3 5.1 | 448 Kbps | BD
Язык                                     : Ukrainian
Default                                  : Нет
Forced                                   : Нет
Аудио #3
Идентификатор                            : 4
Формат                                   : AC-3
Формат/Информация                        : Audio Coding 3
Расширение режима                        : CM (complete main)
Параметр Endianness формата              : Big
Идентификатор кодека                     : A_AC3
Продолжительность                        : 2 ч. 11 м.
Вид битрейта                             : Постоянный
Битрейт                                  : 448 Кбит/сек
Каналы                                   : 6 каналов
Расположение каналов                     : Front: L C R, Side: L R, LFE
Частота                                  : 48,0 КГц
Битовая глубина                          : 16 бит
Метод сжатия                             : С потерями
Размер потока                            : 422 Мбайт (7%)
Заголовок                                : AC3 5.1 | 448 Kbps | BD
Язык                                     : English
Default                                  : Нет
Forced                                   : Нет
Текст #1
Идентификатор                            : 5
Формат                                   : UTF-8
Идентификатор кодека                     : S_TEXT/UTF8
Идентификатор кодека/Информация          : UTF-8 Plain Text
Заголовок                                : Forced
Язык                                     : Russian
Default                                  : Да
Forced                                   : Нет
Текст #2
Идентификатор                            : 6
Формат                                   : UTF-8
Идентификатор кодека                     : S_TEXT/UTF8
Идентификатор кодека/Информация          : UTF-8 Plain Text
Заголовок                                : Full
Язык                                     : Russian
Default                                  : Нет
Forced                                   : Нет
Текст #3
Идентификатор                            : 7
Формат                                   : UTF-8
Идентификатор кодека                     : S_TEXT/UTF8
Идентификатор кодека/Информация          : UTF-8 Plain Text
Заголовок                                : Full
Язык                                     : Ukrainian
Default                                  : Нет
Forced                                   : Нет
Текст #4
Идентификатор                            : 8
Формат                                   : UTF-8
Идентификатор кодека                     : S_TEXT/UTF8
Идентификатор кодека/Информация          : UTF-8 Plain Text
Заголовок                                : Forced
Язык                                     : English
Default                                  : Нет
Forced                                   : Нет
Текст #5
Идентификатор                            : 9
Формат                                   : UTF-8
Идентификатор кодека                     : S_TEXT/UTF8
Идентификатор кодека/Информация          : UTF-8 Plain Text
Заголовок                                : Full
Язык                                     : English
Default                                  : Нет
Forced                                   : Нет
Текст #6
Идентификатор                            : 10
Формат                                   : UTF-8
Идентификатор кодека                     : S_TEXT/UTF8
Идентификатор кодека/Информация          : UTF-8 Plain Text
Заголовок                                : SDH
Язык                                     : English
Default                                  : Нет
Forced                                   : Нет
Меню
00:00:00.000                             : en:00:00:00.000
00:03:33.338                             : en:00:03:33.338
00:08:00.689                             : en:00:08:00.689
00:10:28.628                             : en:00:10:28.628
00:13:58.046                             : en:00:13:58.046
00:17:02.021                             : en:00:17:02.021
00:20:16.090                             : en:00:20:16.090
00:22:11.330                             : en:00:22:11.330
00:26:37.888                             : en:00:26:37.888
00:30:32.039                             : en:00:30:32.039
00:34:29.776                             : en:00:34:29.776
00:36:00.992                             : en:00:36:00.992
00:38:18.087                             : en:00:38:18.087
00:40:37.101                             : en:00:40:37.101
00:45:53.793                             : en:00:45:53.793
00:48:53.848                             : en:00:48:53.848
00:51:58.157                             : en:00:51:58.157
00:54:43.113                             : en:00:54:43.113
00:57:51.426                             : en:00:57:51.426
01:00:48.186                             : en:01:00:48.186
01:03:26.594                             : en:01:03:26.594
01:07:09.567                             : en:01:07:09.567
01:09:43.596                             : en:01:09:43.596
01:13:11.470                             : en:01:13:11.470
01:15:31.861                             : en:01:15:31.861
01:17:27.726                             : en:01:17:27.726
01:19:30.099                             : en:01:19:30.099
01:24:50.711                             : en:01:24:50.711
01:26:58.255                             : en:01:26:58.255
01:31:04.250                             : en:01:31:04.250
01:34:03.680                             : en:01:34:03.680
01:37:33.181                             : en:01:37:33.181
01:41:54.817                             : en:01:41:54.817
01:44:52.995                             : en:01:44:52.995
01:47:19.808                             : en:01:47:19.808
01:51:29.766                             : en:01:51:29.766
01:56:42.746                             : en:01:56:42.746
02:00:12.414                             : en:02:00:12.414
02:02:34.973                             : en:02:02:34.973
02:10:31.907                             : en:02:10:31.907
Релиз от:
[Профиль] [ЛС]
Кто просматривает тему:

Показать сообщения:    

Текущее время: Сегодня 11:48

Часовой пояс: GMT



Вы не можете начинать темы
Вы не можете отвечать на сообщения
Вы не можете редактировать свои сообщения
Вы не можете удалять свои сообщения
Вы не можете голосовать в опросах
Вы не можете прикреплять файлы к сообщениям
Вы не можете скачивать файлы