Люди Икс: Дни минувшего будущего в 3Д / X-Men: Days of Future Past 3D (Брайан Сингер / Bryan Singer) [2014, фантастика, боевик, триллер, приключения, BDRip-AVC] Half SideBySide / Горизонтальная анаморфная стереопара

 
Автор Сообщение

TorrentFilm ®

Пол:

Стаж: 1 год 11 месяцев

Сообщений: 7741



Награды: Нет

Торрент-статистика

Создавать темы 17-Дек-2014 02:30

[Цитировать]

Люди Икс: Дни минувшего будущего / X-Men: Days of Future Past- Год выпуска: 2014
Страна: США, Великобритания
Жанр: фантастика, боевик, триллер, приключения
Продолжительность: 02:11:35
Перевод: Профессиональный (дублированный)
Субтитры: русские, украинские, английские-Режиссер: Брайан Сингер / Bryan Singer-В ролях: Хью Джекман, Джеймс МакЭвой, Майкл Фассбендер, Дженнифер Лоуренс, Холли Берри, Николас Холт, Анна Пэкуин, Эллен Пейдж, Питер Динклэйдж, Шон Эшмор.-Описание: В недалёком будущем мутанты близки к истреблению роботами-охотниками на мутантов Стражами. Единственная надежда для мутантов выжить — предотвратить череду роковых событий, приведших к появлению Стражей. С помощью своих способностей, Китти Прайд перемещает сознание Росомахи в его молодое тело в 1973 год. В прошлом всё оказывается не так радужно: молодой Профессор Икс окончательно разочарован в своих идеях, Магнето содержится в тюрьме глубоко под землёй, а человечество не знает как реагировать на широкое появление мутантов…-Качество: BDRip | HDCLUB
Контейнер: MKV
Формат 3D: Half SideBySide | Горизонтальная анаморфная стереопара
Видео: 1920x1080 (16:9), 23.976 fps, High Profile 4.1 ~15200 kbps
Аудио 1: Russian 48 kHz, 5.1 DTS Audio, 768.00 kbps | Dub
Аудио 2: Ukrainian 48 kHz, 5.1 AC3 Dolby Digital Audio, 448.00 kbps | Dub
Аудио 3: English 48 kHz, 5.1 DTS Audio, 1509.00 kbps | Original

Инфо

Формат : Matroska
Версия формата : Version 2
Размер файла : 16,5 Гбайт
Продолжительность : 2 ч. 11 м.
Общий поток : 17,9 Мбит/сек
Название фильма : X-Men Days of Future Past (2014) - Release for HDCLUB
Дата кодирования : UTC 2014-10-04 11:11:37
Программа кодирования : mkvmerge v5.7.0 ('The Whirlwind') built on Jul 8 2012 20:08:51
Библиотека кодирования : libebml v1.2.3 + libmatroska v1.3.0
Видео
Идентификатор : 1
Формат : AVC
Формат/Информация : Advanced Video Codec
Профиль формата : High@L4.1
Параметр CABAC формата : Да
Параметр ReFrames формата : 4 кадра
Идентификатор кодека : V_MPEG4/ISO/AVC
Продолжительность : 2 ч. 11 м.
Битрейт : 15,2 Мбит/сек
Ширина : 1920 пикселей
Высота : 1080 пикселей
Соотношение сторон : 16:9
Режим частоты кадров : Постоянный
Частота кадров : 23,976 кадра/сек
Цветовое пространство : YUV
Субдискретизация насыщенности : 4:2:0
Битовая глубина : 8 бит
Тип развёртки : Прогрессивная
Бит/(Пиксели*Кадры) : 0.306
Размер потока : 13,6 Гбайт (83%)
Библиотека кодирования : x264 core 142 r2431+42 c69a006 tMod [8-bit@all X86_64]
Настройки программы : cabac=1 / ref=4 / deblock=1:-3:-3 / analyse=0x3:0x133 / me=umh / subme=10 / psy=1 / fade_compensate=0.00 / psy_rd=1.03:0.00 / mixed_ref=1 / me_range=24 / chroma_me=1 / trellis=2 / 8x8dct=1 / cqm=0 / deadzone=21,11 / fast_pskip=1 / chroma_qp_offset=-2 / threads=12 / lookahead_threads=2 / sliced_threads=0 / nr=0 / decimate=1 / interlaced=0 / bluray_compat=0 / constrained_intra=0 / fgo=0 / bframes=9 / b_pyramid=2 / b_adapt=2 / b_bias=0 / direct=3 / weightb=1 / open_gop=0 / weightp=2 / keyint=250 / keyint_min=23 / scenecut=40 / intra_refresh=0 / rc=2pass / mbtree=0 / bitrate=15200 / ratetol=1.0 / qcomp=0.65 / qpmin=0:0:0 / qpmax=69:69:69 / qpstep=4 / cplxblur=20.0 / qblur=0.5 / ip_ratio=1.30 / pb_ratio=1.20 / aq=1:0.82 / aq-sensitivity=10.00 / aq-factor=1.00:1.00:1.00 / aq2=0 / aq3=0 / zones=26,139,b=1.2/1454,1917,b=1.5/2499,2628,b=1.2/3910,3965,b=1.5/12571,12882,b=1.5/13299,13459,b=1.8/13907,14140,b=1.8/15109,15151,b=1.8/15189,15279,b=1.5/15657,15684,b=1.3/15833,15867,b=1.5/18369,18475,b=2/18726,18799,b=1.2/18865,18903,b=1.2/113100,113189,b=1.5/113232,113318,b=1.3/113520,113524,b=1.3/125833,125899,b=1.5/168679,168683,b=1.6
Язык : English
Default : Да
Forced : Нет
Коэффициенты матрицы : BT.709
Аудио #1
Идентификатор : 2
Формат : DTS
Формат/Информация : Digital Theater Systems
Режим : 16
Параметр Endianness формата : Big
Идентификатор кодека : A_DTS
Продолжительность : 2 ч. 11 м.
Вид битрейта : Постоянный
Битрейт : 768 Кбит/сек
Каналы : 6 каналов
Расположение каналов : Front: L C R, Side: L R, LFE
Частота : 48,0 КГц
Битовая глубина : 24 бит
Метод сжатия : С потерями
Размер потока : 723 Мбайт (4%)
Заголовок : |Дубляж, BluRay CEE|
Язык : Russian
Default : Да
Forced : Нет
Аудио #2
Идентификатор : 3
Формат : AC-3
Формат/Информация : Audio Coding 3
Расширение режима : CM (complete main)
Параметр Endianness формата : Big
Идентификатор кодека : A_AC3
Продолжительность : 2 ч. 11 м.
Вид битрейта : Постоянный
Битрейт : 448 Кбит/сек
Каналы : 6 каналов
Расположение каналов : Front: L C R, Side: L R, LFE
Частота : 48,0 КГц
Битовая глубина : 16 бит
Метод сжатия : С потерями
Размер потока : 422 Мбайт (2%)
Заголовок : |Дубляж, BluRay CEE|
Язык : Ukrainian
Default : Нет
Forced : Нет
Аудио #3
Идентификатор : 4
Формат : DTS
Формат/Информация : Digital Theater Systems
Профиль формата : ES
Режим : 16
Параметр Endianness формата : Big
Идентификатор кодека : A_DTS
Продолжительность : 2 ч. 11 м.
Вид битрейта : Постоянный
Битрейт : 1509 Кбит/сек
Каналы : 6 каналов
Расположение каналов : Front: L C R, Side: L R, LFE
Частота : 48,0 КГц
Битовая глубина : 24 бит
Метод сжатия : С потерями
Размер потока : 1,39 Гбайт (8%)
Язык : English
Default : Нет
Forced : Нет
Текст #1
Идентификатор : 5
Формат : UTF-8
Идентификатор кодека : S_TEXT/UTF8
Идентификатор кодека/Информация : UTF-8 Plain Text
Заголовок : Forced
Язык : Russian
Default : Да
Forced : Нет
Текст #2
Идентификатор : 6
Формат : UTF-8
Идентификатор кодека : S_TEXT/UTF8
Идентификатор кодека/Информация : UTF-8 Plain Text
Язык : Russian
Default : Нет
Forced : Нет
Текст #3
Идентификатор : 7
Формат : UTF-8
Идентификатор кодека : S_TEXT/UTF8
Идентификатор кодека/Информация : UTF-8 Plain Text
Язык : Ukrainian
Default : Нет
Forced : Нет
Текст #4
Идентификатор : 8
Формат : UTF-8
Идентификатор кодека : S_TEXT/UTF8
Идентификатор кодека/Информация : UTF-8 Plain Text
Заголовок : Forced
Язык : English
Default : Нет
Forced : Нет
Текст #5
Идентификатор : 9
Формат : UTF-8
Идентификатор кодека : S_TEXT/UTF8
Идентификатор кодека/Информация : UTF-8 Plain Text
Язык : English
Default : Нет
Forced : Нет
Меню
00:00:00.000 : en:1
00:03:33.000 : en:2
00:08:00.000 : en:3
00:10:28.000 : en:4
00:13:57.000 : en:5
00:17:01.000 : en:6
00:20:14.000 : en:7
00:22:10.000 : en:8
00:26:36.000 : en:9
00:30:30.000 : en:10
00:34:27.000 : en:11
00:35:58.000 : en:12
00:38:15.000 : en:13
00:40:34.000 : en:14
00:45:51.000 : en:15
00:48:50.000 : en:16
00:51:55.000 : en:17
00:54:39.000 : en:18
00:57:47.000 : en:19
01:00:44.000 : en:20
01:03:22.000 : en:21
01:07:05.000 : en:22
01:09:39.000 : en:23
01:13:07.000 : en:24
01:15:27.000 : en:25
01:17:23.000 : en:26
01:19:25.000 : en:27
01:24:45.000 : en:28
01:26:53.000 : en:29
01:30:58.000 : en:30
01:33:58.000 : en:31
01:37:27.000 : en:32
01:41:48.000 : en:33
01:44:46.000 : en:34
01:47:13.000 : en:35
01:51:23.000 : en:36
01:56:35.000 : en:37
02:00:05.000 : en:38
02:02:27.000 : en:39
02:10:24.000 : en:40

Скриншоты

[Профиль] [ЛС]
Кто просматривает тему:

Показать сообщения:    

Текущее время: Сегодня 14:02

Часовой пояс: GMT



Вы не можете начинать темы
Вы не можете отвечать на сообщения
Вы не можете редактировать свои сообщения
Вы не можете удалять свои сообщения
Вы не можете голосовать в опросах
Вы не можете прикреплять файлы к сообщениям
Вы не можете скачивать файлы