Люди Икс: Апокалипсис / X-Men: Apocalypse (2016) BDRip 1080p от NNNB | D, P

 
Автор Сообщение

Russian Mafia ®

Пол:

Стаж: 1 год 8 месяцев

Сообщений: 4256



Награды: 10 (Подробнее)

Top Releaser 2 (Количество: 1) Mega Seeder 1 (Количество: 1) Mega Seeder 4 (Количество: 1)
Торрент-статистика

Создавать темы 06-Окт-2016 12:50

[Цитировать]

Люди Икс: Апокалипсис / X-Men: Apocalypse
«Выживет сильнейший»
Русское название: Люди Икс: Апокалипсис
Оригинальное название: X-Men: Apocalypse
Год выпуска: 2016
Жанр: фантастика, боевик, приключения
Выпущено: США
Режиссер: Брайан Сингер
В ролях: Джеймс МакЭвой , Майкл Фассбендер , Дженнифер Лоуренс , Николас Холт , Оскар Айзек , Роуз Бирн , Эван Питерс , Джош Хелман , Софи Тернер , Тай Шеридан , Лукас Тилл , Коди Смит-МакФи
Перевод: Дублированный, Профессиональный многоголосый

Сюжет фильма:
События «Дней Минувшего Будущего» оказали колоссальное влияние на мир, где мутанты и люди борются за свое место под Солнцем. В это нелегкое время Людям Икс предстоит столкнуться со своим самым опасным противником - древним мутантом Апокалипсисом, существом, схватка с которым может стать последней не только для мутантов, но и в принципе для всего человечества. В поисках способа победы над неуязвимым и бессмертным монстром Людям Икс предстоит узнать больше о происхождении своего вида. Но Апокалипсис неимоверно силен, и вероятность победы все уменьшается, ведь он твердо убежден, что только сильнейшие имеют право на выживание...

Качество: BDRip 1080p
Формат: AVC (библиотека кодирования x.264)
Контейнер (Расширение): MKV
Видео: 1920x800, 13913 Кбит/сек, 23,976 кадр/сек, 0,369 Бит/[Пиксели*Кадры]
Аудио №1: русский / AC3 / 5.1 / 48 kHz / 448 kbps / |Дублированный, Лицензия|
Аудио №2: русский / AC3 / 5.1 / 48 kHz / 640 kbps / |Профессиональный многоголосый, FocusStudio|
Аудио №3: английский / AC3 / 5.1 / 48 kHz / 640 kbps /
Субтитры: русские (Forced), русские, русские (FocusStudio), английские (Forced), английские
Навигация по главам(Чаптеры): есть
Продолжительность: 02:23:56
Видеоряд: VietHDРелиз от: Сообщество:

MediaInfo

Format : Matroska
Format version : Version 2
File size : 15.7 GiB
Duration : 2 h 23 min
Overall bit rate : 15.6 Mb/s
Movie name : X-Men: Apocalypse.(2016).BDRip.1080p.[denis100]
Encoded date : UTC 2016-10-06 11:21:57
Writing application : mkvmerge v5.8.0 ('No Sleep / Pillow') built on Sep 2 2012 15:37:04
Writing library : libebml v1.2.3 + libmatroska v1.3.0
Video
ID : 1
Format : AVC
Format/Info : Advanced Video Codec
Format profile : High@L4.1
Format settings, CABAC : Yes
Format settings, ReFrames : 5 frames
Codec ID : V_MPEG4/ISO/AVC
Duration : 2 h 23 min
Bit rate : 13.6 Mb/s
Width : 1 920 pixels
Height : 800 pixels
Display aspect ratio : 2.40:1
Frame rate mode : Constant
Frame rate : 23.976 (24000/1001) FPS
Color space : YUV
Chroma subsampling : 4:2:0
Bit depth : 8 bits
Scan type : Progressive
Bits/(Pixel*Frame) : 0.369
Stream size : 13.7 GiB (87%)
Title : X-Men: Apocalypse.(2016).BDRip.1080p.[denis100]
Writing library : x264 core 148 r2705.16 d50a22e VietHD_Custom_64
Encoding settings : cabac=1 / ref=5 / deblock=1:-3:-3 / analyse=0x3:0x133 / me=umh / subme=11 / psy=1 / fade_compensate=0.00 / psy_rd=1.00:0.00 / mixed_ref=1 / me_range=32 / chroma_me=1 / trellis=2 / 8x8dct=1 / cqm=0 / deadzone=21,11 / fast_pskip=0 / chroma_qp_offset=-2 / threads=25 / lookahead_threads=4 / sliced_threads=0 / nr=0 / decimate=0 / interlaced=0 / bluray_compat=0 / constrained_intra=0 / fgo=0 / bframes=9 / b_pyramid=2 / b_adapt=2 / b_bias=0 / direct=3 / weightb=1 / open_gop=0 / weightp=2 / keyint=250 / keyint_min=23 / scenecut=40 / intra_refresh=0 / rc_lookahead=60 / rc=crf / mbtree=0 / crf=17.1000 / qcomp=0.65 / qpmin=0:0:0 / qpmax=69:69:69 / qpstep=4 / vbv_maxrate=62500 / vbv_bufsize=78125 / crf_max=0.0 / nal_hrd=none / filler=0 / ip_ratio=1.30 / pb_ratio=1.20 / aq=3:0.80 / aq-sensitivity=10.00 / aq-factor=1.00:1.00:1.00 / aq2=0 / aq3=0
Language : English
Default : Yes
Forced : No
Audio #1
ID : 2
Format : AC-3
Format/Info : Audio Coding 3
Mode extension : CM (complete main)
Format settings, Endianness : Big
Codec ID : A_AC3
Duration : 2 h 23 min
Bit rate mode : Constant
Bit rate : 448 kb/s
Channel(s) : 6 channels
Channel positions : Front: L C R, Side: L R, LFE
Sampling rate : 48.0 kHz
Frame rate : 31.250 FPS (1536 spf)
Compression mode : Lossy
Stream size : 461 MiB (3%)
Title : DUB
Language : Russian
Default : No
Forced : No
Audio #2
ID : 3
Format : AC-3
Format/Info : Audio Coding 3
Mode extension : CM (complete main)
Format settings, Endianness : Big
Codec ID : A_AC3
Duration : 2 h 23 min
Bit rate mode : Constant
Bit rate : 640 kb/s
Channel(s) : 6 channels
Channel positions : Front: L C R, Side: L R, LFE
Sampling rate : 48.0 kHz
Frame rate : 31.250 FPS (1536 spf)
Compression mode : Lossy
Stream size : 659 MiB (4%)
Title : MVO, FocusStudio
Language : Russian
Default : No
Forced : No
Audio #3
ID : 4
Format : AC-3
Format/Info : Audio Coding 3
Mode extension : CM (complete main)
Format settings, Endianness : Big
Codec ID : A_AC3
Duration : 2 h 23 min
Bit rate mode : Constant
Bit rate : 640 kb/s
Channel(s) : 6 channels
Channel positions : Front: L C R, Side: L R, LFE
Sampling rate : 48.0 kHz
Frame rate : 31.250 FPS (1536 spf)
Compression mode : Lossy
Stream size : 659 MiB (4%)
Language : English
Default : No
Forced : No
Text #1
ID : 5
Format : UTF-8
Codec ID : S_TEXT/UTF8
Codec ID/Info : UTF-8 Plain Text
Title : Forced
Language : Russian
Default : Yes
Forced : No
Text #2
ID : 6
Format : UTF-8
Codec ID : S_TEXT/UTF8
Codec ID/Info : UTF-8 Plain Text
Language : Russian
Default : No
Forced : No
Text #3
ID : 7
Format : UTF-8
Codec ID : S_TEXT/UTF8
Codec ID/Info : UTF-8 Plain Text
Title : FocusStudio
Language : Russian
Default : No
Forced : No
Text #4
ID : 8
Format : UTF-8
Codec ID : S_TEXT/UTF8
Codec ID/Info : UTF-8 Plain Text
Title : Forced
Language : English
Default : No
Forced : No
Text #5
ID : 9
Format : UTF-8
Codec ID : S_TEXT/UTF8
Codec ID/Info : UTF-8 Plain Text
Language : English
Default : No
Forced : No
Menu
00:00:00.000 : en:00:00:00.000
00:08:18.790 : en:00:08:18.790
00:14:13.186 : en:00:14:13.186
00:18:07.086 : en:00:18:07.086
00:24:55.494 : en:00:24:55.494
00:30:45.343 : en:00:30:45.343
00:36:35.235 : en:00:36:35.235
00:41:00.083 : en:00:41:00.083
00:45:56.504 : en:00:45:56.504
00:49:24.295 : en:00:49:24.295
00:55:22.611 : en:00:55:22.611
00:59:36.823 : en:00:59:36.823
01:04:43.671 : en:01:04:43.671
01:12:35.851 : en:01:12:35.851
01:17:32.898 : en:01:17:32.898
01:22:18.517 : en:01:22:18.517
01:27:45.594 : en:01:27:45.594
01:34:05.807 : en:01:34:05.807
01:36:46.634 : en:01:36:46.634
01:39:50.902 : en:01:39:50.902
01:43:34.375 : en:01:43:34.375
01:49:57.382 : en:01:49:57.382
01:55:08.360 : en:01:55:08.360
01:57:21.660 : en:01:57:21.660
02:03:50.548 : en:02:03:50.548
02:07:56.711 : en:02:07:56.711
02:10:59.101 : en:02:10:59.101
02:12:54.091 : en:02:12:54.091

Bitrate Viewer

Скриншоты

[Профиль] [ЛС]
Кто просматривает тему:

Показать сообщения:    

Текущее время: Сегодня 16:40

Часовой пояс: GMT



Вы не можете начинать темы
Вы не можете отвечать на сообщения
Вы не можете редактировать свои сообщения
Вы не можете удалять свои сообщения
Вы не можете голосовать в опросах
Вы не можете прикреплять файлы к сообщениям
Вы не можете скачивать файлы