Люди Икс: Апокалипсис / X-Men: Apocalypse (2016) BDRip 1080p от ExKinoRay | Лицензия

 
Автор Сообщение

Russian Mafia ®

Пол:

Стаж: 1 год 8 месяцев

Сообщений: 4256



Награды: 10 (Подробнее)

Mega Seeder 2 (Количество: 1) Top Releaser 2 (Количество: 1) Mega Seeder 4 (Количество: 1)
Торрент-статистика

Создавать темы 14-Сен-2016 19:31

[Цитировать]

Информация о фильме
Название: Люди Икс: Апокалипсис
Оригинальное название: X-Men: Apocalypse
Год выпуска: 2016
Жанр: Фантастика, фэнтези, боевик, приключения
Выпущено: США, 20th Century Fox Film Corporation, Bad Hat Harry Productions, Donners' Company, Marvel Entertainment, Mel's Cite du Cinema, TSG Entertainment
Режиссер: Брайан Сингер
В ролях: Джеймс МакЭвой, Майкл Фассбендер, Дженнифер Лоуренс, Эван Питерс, Оливия Манн, Роуз Бирн, Оскар Айзек, Софи Тёрнер, Николас Холт, Тай Шеридан, Бен Харди
О фильме: После событий "Дней минувшего будущего" мировое сообщество начинает осознавать присутствие среди обычных людей мутантов со сверхчеловеческими способностями. Но спокойно разобраться с внезапно вскрывшимися подробностями не позволяет случайно разбуженный от многовекового сна древний мутант Эн Сабах Нур, несущий апокалипсис в раздираемый противоречиями мир уже сегодня. Людям Икс предстоит решающая битва с самым могущественным врагом из тех, с кем им приходилось сталкиваться ранее.

Файл
Качество: BDRip (1080p)
Видео: MPEG-4 AVC, 11447 Кбит/с, 1920x800, 23.976 кадр/с
Аудио: Русский (AC3, 6 ch, 448 Кбит/с), (DTS, 6 ch, 768 Кбит/с), украинский, английский (AC3, 6 ch, 448 Кбит/с)
Размер: 13.64 ГБ
Продолжительность: 02:23:58
Перевод: Дублированный
Субтитры: Русские, латышские, литовские, эстонские, украинские, английские
Озвучивание - Дублированное (Лицензия)
Сохранены оригинальные чаптеры как на Blu-Ray.

x264

x264 [info]: frame I:2002 Avg QP:14.64 size:277096
x264 [info]: frame P:55694 Avg QP:17.27 size:101641
x264 [info]: frame B:149367 Avg QP:18.37 size: 41121
x264 [info]: consecutive B-frames: 5.7% 8.4% 13.0% 13.7% 14.8% 39.5% 3.8% 0.5% 0.3% 0.2% 0.1%
x264 [info]: mb I I16..4: 28.3% 49.8% 21.9%
x264 [info]: mb P I16..4: 3.1% 27.8% 1.6% P16..4: 24.3% 30.0% 10.4% 2.2% 0.1% skip: 0.4%
x264 [info]: mb B I16..4: 0.3% 3.2% 0.1% B16..8: 37.7% 23.5% 3.8% direct:10.3% skip:21.0% L0:42.6% L1:41.5% BI:15.9%
x264 [info]: 8x8 transform intra:83.6% inter:48.0%
x264 [info]: direct mvs spatial:95.4% temporal:4.6%
x264 [info]: coded y,uvDC,uvAC intra: 95.6% 93.4% 83.3% inter: 40.4% 46.5% 25.5%
x264 [info]: i16 v,h,dc,p: 5% 4% 27% 64%
x264 [info]: i8 v,h,dc,ddl,ddr,vr,hd,vl,hu: 9% 9% 13% 9% 11% 11% 11% 12% 14%
x264 [info]: i4 v,h,dc,ddl,ddr,vr,hd,vl,hu: 11% 9% 6% 9% 14% 13% 14% 11% 13%
x264 [info]: i8c dc,h,v,p: 54% 17% 13% 16%
x264 [info]: Weighted P-Frames: Y:3.8% UV:2.4%
x264 [info]: ref P L0: 49.1% 10.3% 23.8% 7.9% 7.6% 1.2% 0.0%
x264 [info]: ref B L0: 75.9% 17.3% 5.2% 1.6%
x264 [info]: ref B L1: 93.1% 6.9%
x264 [info]: kb/s:11447.25

Инфо-файл

Общее
Уникальный идентификатор : 219709727521494907896524447721445037549 (0xA54A8DE89D90F5F8BAF79F60C0DE95ED)
Полное имя : D:ЗагрузкиX-Men.Apocalypse.2016.x264.BDRip.(1080p).ExKinoRay.mkv
Формат : Matroska
Версия формата : Version 2
Размер файла : 13,6 Гбайт
Продолжительность : 2 ч. 23 м.
Общий поток : 13,6 Мбит/сек
Название фильма : Люди Икс: Апокалипсис.2016.Rip by: ollan
Дата кодирования : UTC 2016-09-14 18:48:10
Программа кодирования : mkvmerge v5.6.0 ('Kenya Kane') built on May 27 2012 16:44:04
Библиотека кодирования : libebml v1.2.3 + libmatroska v1.3.0
Attachements : Cover - X-Men.Apocalypse.png
Видео
Идентификатор : 1
Формат : AVC
Формат/Информация : Advanced Video Codec
Профиль формата : High@L4.1
Параметр CABAC формата : Да
Параметр ReFrames формата : 5 кадров
Идентификатор кодека : V_MPEG4/ISO/AVC
Продолжительность : 2 ч. 23 м.
Битрейт : 11,4 Мбит/сек
Ширина : 1920 пикселей
Высота : 800 пикселей
Соотношение сторон : 2,40:1
Режим частоты кадров : Постоянный
Частота кадров : 23,976 (24000/1001) кадра/сек
Цветовое пространство : YUV
Субдискретизация насыщенности : 4:2:0
Битовая глубина : 8 бит
Тип развёртки : Прогрессивная
Бит/(Пиксели*Кадры) : 0.311
Размер потока : 11,2 Гбайт (82%)
Библиотека кодирования : x264 core 146 r2538 121396c
Настройки программы : cabac=1 / ref=5 / deblock=1:-3:-3 / analyse=0x3:0x133 / me=umh / subme=11 / psy=1 / psy_rd=1.06:0.12 / mixed_ref=1 / me_range=48 / chroma_me=1 / trellis=2 / 8x8dct=1 / cqm=0 / deadzone=21,11 / fast_pskip=0 / chroma_qp_offset=-3 / threads=12 / lookahead_threads=3 / sliced_threads=0 / nr=0 / decimate=0 / interlaced=0 / bluray_compat=0 / constrained_intra=0 / bframes=10 / b_pyramid=2 / b_adapt=2 / b_bias=0 / direct=3 / weightb=1 / open_gop=0 / weightp=2 / keyint=240 / keyint_min=23 / scenecut=40 / intra_refresh=0 / rc_lookahead=40 / rc=2pass / mbtree=0 / bitrate=11447 / ratetol=1.0 / qcomp=0.60 / qpmin=0 / qpmax=69 / qpstep=4 / cplxblur=20.0 / qblur=0.5 / vbv_maxrate=50000 / vbv_bufsize=62500 / nal_hrd=none / filler=0 / ip_ratio=1.40 / pb_ratio=1.30 / aq=1:1.00
Язык : English
Default : Да
Forced : Нет
Аудио #1
Идентификатор : 2
Формат : AC-3
Формат/Информация : Audio Coding 3
Расширение режима : CM (complete main)
Параметр Endianness формата : Big
Идентификатор кодека : A_AC3
Продолжительность : 2 ч. 23 м.
Вид битрейта : Постоянный
Битрейт : 448 Кбит/сек
Каналы : 6 каналов
Расположение каналов : Front: L C R, Side: L R, LFE
Частота : 48,0 КГц
Частота кадров : 31,250 кадров/сек (1536 spf)
Метод сжатия : С потерями
Размер потока : 461 Мбайт (3%)
Заголовок : Дублированный (Лицензия)
Язык : Russian
Default : Да
Forced : Нет
Аудио #2
Идентификатор : 3
Формат : DTS
Формат/Информация : Digital Theater Systems
Режим : 16
Параметр Endianness формата : Big
Идентификатор кодека : A_DTS
Продолжительность : 2 ч. 23 м.
Вид битрейта : Постоянный
Битрейт : 768 Кбит/сек
Каналы : 6 каналов
Расположение каналов : Front: L C R, Side: L R, LFE
Частота : 48,0 КГц
Частота кадров : 93,750 кадра/сек (512 spf)
Битовая глубина : 24 бит
Метод сжатия : С потерями
Размер потока : 791 Мбайт (6%)
Заголовок : Дублированный (Лицензия)
Язык : Russian
Default : Нет
Forced : Нет
Аудио #3
Идентификатор : 4
Формат : AC-3
Формат/Информация : Audio Coding 3
Расширение режима : CM (complete main)
Параметр Endianness формата : Big
Идентификатор кодека : A_AC3
Продолжительность : 2 ч. 23 м.
Вид битрейта : Постоянный
Битрейт : 448 Кбит/сек
Каналы : 6 каналов
Расположение каналов : Front: L C R, Side: L R, LFE
Частота : 48,0 КГц
Частота кадров : 31,250 кадров/сек (1536 spf)
Метод сжатия : С потерями
Размер потока : 461 Мбайт (3%)
Заголовок : Дублированный (Лицензия)
Язык : Ukrainian
Default : Нет
Forced : Нет
Аудио #4
Идентификатор : 5
Формат : AC-3
Формат/Информация : Audio Coding 3
Расширение режима : CM (complete main)
Параметр Endianness формата : Big
Идентификатор кодека : A_AC3
Продолжительность : 2 ч. 23 м.
Вид битрейта : Постоянный
Битрейт : 448 Кбит/сек
Каналы : 6 каналов
Расположение каналов : Front: L C R, Side: L R, LFE
Частота : 48,0 КГц
Частота кадров : 31,250 кадров/сек (1536 spf)
Метод сжатия : С потерями
Размер потока : 461 Мбайт (3%)
Язык : English
Default : Нет
Forced : Нет
Текст #1
Идентификатор : 6
Формат : UTF-8
Идентификатор кодека : S_TEXT/UTF8
Идентификатор кодека/Информация : UTF-8 Plain Text
Заголовок : Forced
Язык : Russian
Default : Да
Forced : Нет
Текст #2
Идентификатор : 7
Формат : UTF-8
Идентификатор кодека : S_TEXT/UTF8
Идентификатор кодека/Информация : UTF-8 Plain Text
Заголовок : Full
Язык : Russian
Default : Нет
Forced : Нет
Текст #3
Идентификатор : 8
Формат : UTF-8
Идентификатор кодека : S_TEXT/UTF8
Идентификатор кодека/Информация : UTF-8 Plain Text
Заголовок : Full
Язык : Latvian
Default : Нет
Forced : Нет
Текст #4
Идентификатор : 9
Формат : UTF-8
Идентификатор кодека : S_TEXT/UTF8
Идентификатор кодека/Информация : UTF-8 Plain Text
Заголовок : Full
Язык : Lithuanian
Default : Нет
Forced : Нет
Текст #5
Идентификатор : 10
Формат : UTF-8
Идентификатор кодека : S_TEXT/UTF8
Идентификатор кодека/Информация : UTF-8 Plain Text
Заголовок : Full
Язык : Estonian
Default : Нет
Forced : Нет
Текст #6
Идентификатор : 11
Формат : UTF-8
Идентификатор кодека : S_TEXT/UTF8
Идентификатор кодека/Информация : UTF-8 Plain Text
Заголовок : Full
Язык : Ukrainian
Default : Нет
Forced : Нет
Текст #7
Идентификатор : 12
Формат : UTF-8
Идентификатор кодека : S_TEXT/UTF8
Идентификатор кодека/Информация : UTF-8 Plain Text
Заголовок : Full
Язык : English
Default : Нет
Forced : Нет
Меню
00:00:00.000 : en:00:00:00.000
00:08:18.790 : en:00:08:18.790
00:14:13.186 : en:00:14:13.186
00:18:07.086 : en:00:18:07.086
00:24:55.494 : en:00:24:55.494
00:30:45.343 : en:00:30:45.343
00:36:35.235 : en:00:36:35.235
00:41:00.083 : en:00:41:00.083
00:45:56.504 : en:00:45:56.504
00:49:24.295 : en:00:49:24.295
00:55:22.611 : en:00:55:22.611
00:59:36.823 : en:00:59:36.823
01:04:43.671 : en:01:04:43.671
01:12:35.851 : en:01:12:35.851
01:17:32.898 : en:01:17:32.898
01:22:18.517 : en:01:22:18.517
01:27:45.594 : en:01:27:45.594
01:34:05.807 : en:01:34:05.807
01:36:46.634 : en:01:36:46.634
01:39:50.902 : en:01:39:50.902
01:43:34.375 : en:01:43:34.375
01:49:57.382 : en:01:49:57.382
01:55:08.360 : en:01:55:08.360
01:57:21.660 : en:01:57:21.660
02:03:50.548 : en:02:03:50.548
02:07:56.711 : en:02:07:56.711
02:10:59.101 : en:02:10:59.101
02:12:54.091 : en:02:12:54.091

Скриншоты



Релиз от: Rip by:
[Профиль] [ЛС]
Кто просматривает тему:

Показать сообщения:    

Текущее время: Сегодня 02:22

Часовой пояс: GMT



Вы не можете начинать темы
Вы не можете отвечать на сообщения
Вы не можете редактировать свои сообщения
Вы не можете удалять свои сообщения
Вы не можете голосовать в опросах
Вы не можете прикреплять файлы к сообщениям
Вы не можете скачивать файлы