(Pop, Folk rock,) Любэ - Полное собрание сочинений 8 CD (1989-2005) - 2007 [FLAC, image+.cue, lossless]

 
Автор Сообщение

sergej644 ®

Пол:

Стаж: 4 года 11 месяцев

Сообщений: 6035

Откуда: Soviet Union



Награды: Нет

Торрент-статистика

Создавать темы 24-Окт-2014 09:15

[Цитировать]

Любэ - Полное собрание сочинений 8 CD (1989-2005) -Год выпуска 2007 (1989-2005)
Жанр: Поп, Pок, Фолк-рок, Авторская песня
Продолжительность: 05:35:25
Кодек: FLAC
Битрейт: Lossless
Страна: СССР, Россия

-Специально к 50-летию Николая Расторгуева и впервые за многолетнюю историю коллектива выходит книга "Любэ. Полное собрание сочинений", включающая в себя: Все номерные альбомы группы "Любэ": "Атас" (1989), "Кто сказал, что мы плохо жили" (1992), "Зона Любэ" (1993), "Комбат" (1996), "Песни о людях" (1997), "Полустаночки" (2000), "Давай за…" (2002), "Рассея" (2005). Тексты песен. Эксклюзивные интервью с создателями "Любэ" — художественным руководителем и композитором Игорем Матвиенко, солистом группы Народным артистом РФ Николаем Расторгуевым, а также с поэтами-песенниками Александром Шагановым, Михаилом Андреевым, Константином Арсеневым, Виктором Пеленягрэ. Красочные фото иллюстрации и архивные фотографии коллектива."Любэ. Полное собрание сочинений " — уникальное издание, идеальный подарок не только поклонникам творчества группы, но и всем ценителям российской популярной музыки.
--

(1989) - Атас

Продолжительность: 00:51:09-Треклист:
01. Люберцы (3:04)
02. Клетки (2:40)
03. Рулетка (3:04)
04. Дуся-агрегат (4:46)
05. Ночь (3:32)
06. Медовый месяц (4:08)
07. Атас (3:14)
08. Не губите, мужики (4:00)
09. Станция 'Таганская' (3:30)
10. Батька Махно (3:45)
11. Так всегда (3:56)
12. Дядя Вася (3:49)
13. Хулиган (3:37)
14. Тётя доктор (4:06)

Отчёт EAC

Exact Audio Copy V1.0 beta 1 from 15. November 2010
EAC extraction logfile from 24. May 2011, 23:09
Любэ / Атас
Used drive  : PIONEER DVD-RW  DVR-212   Adapter: 8  ID: 0
Read mode               : Secure
Utilize accurate stream : Yes
Defeat audio cache      : Yes
Make use of C2 pointers : No
Read offset correction                      : 48
Overread into Lead-In and Lead-Out          : No
Fill up missing offset samples with silence : Yes
Delete leading and trailing silent blocks   : No
Null samples used in CRC calculations       : Yes
Used interface                              : Installed external ASPI interface
Used output format : Internal WAV Routines
Sample format      : 44.100 Hz; 16 Bit; Stereo
TOC of the extracted CD
Track |   Start  |  Length  | Start sector | End sector
---------------------------------------------------------
1  |  0:00.00 |  3:03.45 |         0    |    13769
2  |  3:03.45 |  2:39.67 |     13770    |    25761
3  |  5:43.37 |  3:03.52 |     25762    |    39538
4  |  8:47.14 |  4:45.51 |     39539    |    60964
5  | 13:32.65 |  3:32.10 |     60965    |    76874
6  | 17:05.00 |  4:07.69 |     76875    |    95468
7  | 21:12.69 |  3:13.52 |     95469    |   109995
8  | 24:26.46 |  4:00.28 |    109996    |   128023
9  | 28:26.74 |  3:29.55 |    128024    |   143753
10  | 31:56.54 |  3:44.51 |    143754    |   160604
11  | 35:41.30 |  3:55.57 |    160605    |   178286
12  | 39:37.12 |  3:48.68 |    178287    |   195454
13  | 43:26.05 |  3:37.11 |    195455    |   211740
14  | 47:03.16 |  4:06.32 |    211741    |   230222
Range status and errors
Selected range
Filename J:\MP3\Любэ (FLAC)\2007 - Полное Собрание Сочинений (Коллекционное издание)\1989 - Атас\Любэ - Атас.wav
Peak level 99.9 %
Extraction speed 0.6 X
Range quality 100.0 %
Test CRC C65A0F07
Copy CRC C65A0F07
Copy OK
No errors occurred
AccurateRip summary
Track  1  not present in database
Track  2  not present in database
Track  3  not present in database
Track  4  not present in database
Track  5  not present in database
Track  6  not present in database
Track  7  not present in database
Track  8  not present in database
Track  9  not present in database
Track 10  not present in database
Track 11  not present in database
Track 12  not present in database
Track 13  not present in database
Track 14  not present in database
None of the tracks are present in the AccurateRip database
End of status report
==== Log checksum 248F37A0E2800803C7B301EB96E499CA0D49DA8F701BBBF4D8052796232EEDBD ====

Отчёт auCDtect

-----------------------
DON'T MODIFY THIS FILE
-----------------------
PERFORMER: auCDtect Task Manager, ver. 1.5.1RC4 build 1.5.1.5
Copyright (c) 2008-2010 y-soft. All rights reserved
http://y-soft.org
ANALYZER: auCDtect: CD records authenticity detector, version 0.8.2
Copyright (c) 2004 Oleg Berngardt. All rights reserved.
Copyright (c) 2004 Alexander Djourik. All rights reserved.
FILE: Любэ - Атас.flac
Size: 337374478 Hash: 634E05B5BA087F35FAC6FF2EE2C4F40A Accuracy: -m0
Conclusion: CDDA 100%
Signature: 5C51D68E14E83C55787072781B151EAA239D93EA

(1992) - Кто сказал, что мы плохо жили..?

Продолжительность: 00:46:49-Треклист:
01. Давай-наяривай (5:28)
02. А ну-ка, девушки... (5:16)
03. Елки-палки (2:12)
04. Не валяй дурака, Америка (3:29)
05. Тулупчик заячий (4:16)
06. За тебя (4:04)
07. Помилуй, Господи, нас, грешных, и спаси... (4:44)
08. Трамвай 'пятёрочка' (4:39)
09. Старый барин (3:33)
10. Ша (4:42)
11. No more barricades (4:27)

Отчёт EAC

Exact Audio Copy V1.0 beta 1 from 15. November 2010
EAC extraction logfile from 24. May 2011, 23:36
Любэ / Кто сказал, что мы плохо жили..?
Used drive  : PIONEER DVD-RW  DVR-212   Adapter: 8  ID: 0
Read mode               : Secure
Utilize accurate stream : Yes
Defeat audio cache      : Yes
Make use of C2 pointers : No
Read offset correction                      : 48
Overread into Lead-In and Lead-Out          : No
Fill up missing offset samples with silence : Yes
Delete leading and trailing silent blocks   : No
Null samples used in CRC calculations       : Yes
Used interface                              : Installed external ASPI interface
Used output format : Internal WAV Routines
Sample format      : 44.100 Hz; 16 Bit; Stereo
TOC of the extracted CD
Track |   Start  |  Length  | Start sector | End sector
---------------------------------------------------------
1  |  0:00.00 |  5:27.59 |         0    |    24583
2  |  5:27.59 |  5:16.22 |     24584    |    48305
3  | 10:44.06 |  2:12.01 |     48306    |    58206
4  | 12:56.07 |  3:29.16 |     58207    |    73897
5  | 16:25.23 |  4:15.62 |     73898    |    93084
6  | 20:41.10 |  4:03.54 |     93085    |   111363
7  | 24:44.64 |  4:44.30 |    111364    |   132693
8  | 29:29.19 |  4:38.42 |    132694    |   153585
9  | 34:07.61 |  3:32.48 |    153586    |   169533
10  | 37:40.34 |  4:41.66 |    169534    |   190674
11  | 42:22.25 |  4:26.57 |    190675    |   210681
Range status and errors
Selected range
Filename J:\MP3\Любэ (FLAC)\2007 - Полное Собрание Сочинений (Коллекционное издание)\1992 - Кто сказал, что мы плохо жили\Любэ - Кто сказал, что мы плохо жили...wav
Peak level 94.6 %
Extraction speed 0.6 X
Range quality 100.0 %
Test CRC 6F063E85
Copy CRC 6F063E85
Copy OK
No errors occurred
AccurateRip summary
Track  1  not present in database
Track  2  not present in database
Track  3  not present in database
Track  4  not present in database
Track  5  not present in database
Track  6  not present in database
Track  7  not present in database
Track  8  not present in database
Track  9  not present in database
Track 10  not present in database
Track 11  not present in database
None of the tracks are present in the AccurateRip database
End of status report
==== Log checksum 6C868CD23D53EB1CCF25580F7642A37D074712A00A018AA08CB00BB74FDE8EAE ====

Отчёт auCDtect

-----------------------
DON'T MODIFY THIS FILE
-----------------------
PERFORMER: auCDtect Task Manager, ver. 1.5.1RC4 build 1.5.1.5
Copyright (c) 2008-2010 y-soft. All rights reserved
http://y-soft.org
ANALYZER: auCDtect: CD records authenticity detector, version 0.8.2
Copyright (c) 2004 Oleg Berngardt. All rights reserved.
Copyright (c) 2004 Alexander Djourik. All rights reserved.
FILE: Любэ - Кто сказал, что мы плохо жили...flac
Size: 309064891 Hash: CB39C9B484D8D93C4F9A7F8DEA2C34C4 Accuracy: -m0
Conclusion: CDDA 100%
Signature: 0CD2C803E8C228867272C1C1D5816559BE1B9753

(1993) - Зона Любэ

Продолжительность: 00:44:52-Треклист:
01. Сирота казанская (4:39)
02. Бабу бы (3:19)
03. Шпарю (3:38)
04. Дорога (4:57)
05. На воле (6:01)
06. Белый лебедь (5:16)
07. Луна (5:52)
08. Младшая сестренка (4:05)
09. Не проси меня, мама (3:29)
10. Конь (3:37)

Отчёт EAC

Exact Audio Copy V1.0 beta 1 from 15. November 2010
EAC extraction logfile from 24. May 2011, 23:56
Любэ / Зона Любэ
Used drive  : PIONEER DVD-RW  DVR-212   Adapter: 8  ID: 0
Read mode               : Secure
Utilize accurate stream : Yes
Defeat audio cache      : Yes
Make use of C2 pointers : No
Read offset correction                      : 48
Overread into Lead-In and Lead-Out          : No
Fill up missing offset samples with silence : Yes
Delete leading and trailing silent blocks   : No
Null samples used in CRC calculations       : Yes
Used interface                              : Installed external ASPI interface
Used output format : Internal WAV Routines
Sample format      : 44.100 Hz; 16 Bit; Stereo
TOC of the extracted CD
Track |   Start  |  Length  | Start sector | End sector
---------------------------------------------------------
1  |  0:00.00 |  4:39.05 |         0    |    20929
2  |  4:39.05 |  3:19.15 |     20930    |    35869
3  |  7:58.20 |  3:37.65 |     35870    |    52209
4  | 11:36.10 |  4:56.68 |     52210    |    74477
5  | 16:33.03 |  6:01.06 |     74478    |   101558
6  | 22:34.09 |  5:15.68 |    101559    |   125251
7  | 27:50.02 |  5:51.43 |    125252    |   151619
8  | 33:41.45 |  4:04.58 |    151620    |   169977
9  | 37:46.28 |  3:28.38 |    169978    |   185615
10  | 41:14.66 |  3:37.31 |    185616    |   201921
Range status and errors
Selected range
Filename J:\MP3\Любэ (FLAC)\2007 - Полное Собрание Сочинений (Коллекционное издание)\1993 - Зона Любэ\Любэ - Зона Любэ.wav
Peak level 78.4 %
Extraction speed 0.5 X
Range quality 100.0 %
Test CRC 65A84CD6
Copy CRC 65A84CD6
Copy OK
No errors occurred
AccurateRip summary
Track  1  not present in database
Track  2  not present in database
Track  3  not present in database
Track  4  not present in database
Track  5  not present in database
Track  6  not present in database
Track  7  not present in database
Track  8  not present in database
Track  9  not present in database
Track 10  not present in database
None of the tracks are present in the AccurateRip database
End of status report
==== Log checksum A1B1D5C878F5BFED4CC1891B8A1FE2738A66CDF7C9752AB4D964B0FC46250A16 ====

Отчёт auCDtect

-----------------------
DON'T MODIFY THIS FILE
-----------------------
PERFORMER: auCDtect Task Manager, ver. 1.5.1RC4 build 1.5.1.5
Copyright (c) 2008-2010 y-soft. All rights reserved
http://y-soft.org
ANALYZER: auCDtect: CD records authenticity detector, version 0.8.2
Copyright (c) 2004 Oleg Berngardt. All rights reserved.
Copyright (c) 2004 Alexander Djourik. All rights reserved.
FILE: Любэ - Зона Любэ.flac
Size: 291076363 Hash: F7AA74A97F7F8B819F84338EBAC5A6E7 Accuracy: -m0
Conclusion: CDDA 100%
Signature: 607C40B405858C604B0795571D05702511E0DBBC

(1996) - Комбат

Продолжительность: 00:41:57-Треклист:
01. Скоро дембель (3:56)
02. Улочки московские (4:18)
03. Орлята (4:07)
04. Шагом марш (3:43)
05. Самоволочка (3:14)
06. Главное, что есть ты уменя... (3:46)
07. Побеседуй со мной (3:38)
08. Комбат (5:05)
09. Спят курганы темные (3:25)
10. Служили два товарища (2:45)
11. Орлята-2 (4:02)

Отчёт EAC

Exact Audio Copy V1.0 beta 1 from 15. November 2010
EAC extraction logfile from 25. May 2011, 0:39
Любэ / Комбат
Used drive  : PIONEER DVD-RW  DVR-212   Adapter: 8  ID: 0
Read mode               : Secure
Utilize accurate stream : Yes
Defeat audio cache      : Yes
Make use of C2 pointers : No
Read offset correction                      : 48
Overread into Lead-In and Lead-Out          : No
Fill up missing offset samples with silence : Yes
Delete leading and trailing silent blocks   : No
Null samples used in CRC calculations       : Yes
Used interface                              : Installed external ASPI interface
Used output format : Internal WAV Routines
Sample format      : 44.100 Hz; 16 Bit; Stereo
TOC of the extracted CD
Track |   Start  |  Length  | Start sector | End sector
---------------------------------------------------------
1  |  0:00.00 |  3:55.74 |         0    |    17698
2  |  3:55.74 |  4:18.03 |     17699    |    37051
3  |  8:14.02 |  4:06.40 |     37052    |    55541
4  | 12:20.42 |  3:42.61 |     55542    |    72252
5  | 16:03.28 |  3:14.12 |     72253    |    86814
6  | 19:17.40 |  3:45.39 |     86815    |   103728
7  | 23:03.04 |  3:37.62 |    103729    |   120065
8  | 26:40.66 |  5:04.52 |    120066    |   142917
9  | 31:45.43 |  3:24.66 |    142918    |   158283
10  | 35:10.34 |  2:45.06 |    158284    |   170664
11  | 37:55.40 |  4:01.53 |    170665    |   188792
Range status and errors
Selected range
Filename J:\MP3\Любэ (FLAC)\2007 - Полное Собрание Сочинений (Коллекционное издание)\1996 - Комбат\Любэ - Комбат.wav
Peak level 88.8 %
Extraction speed 0.6 X
Range quality 100.0 %
Test CRC 6059DD73
Copy CRC 6059DD73
Copy OK
No errors occurred
AccurateRip summary
Track  1  not present in database
Track  2  not present in database
Track  3  not present in database
Track  4  not present in database
Track  5  not present in database
Track  6  not present in database
Track  7  not present in database
Track  8  not present in database
Track  9  not present in database
Track 10  not present in database
Track 11  not present in database
None of the tracks are present in the AccurateRip database
End of status report
==== Log checksum 0C3017DBD3853C315D023B9FDBC8586A733E3C934051DB45BE619CC81A65C0B4 ====

Отчёт auCDtect

-----------------------
DON'T MODIFY THIS FILE
-----------------------
PERFORMER: auCDtect Task Manager, ver. 1.5.1RC4 build 1.5.1.5
Copyright (c) 2008-2010 y-soft. All rights reserved
http://y-soft.org
ANALYZER: auCDtect: CD records authenticity detector, version 0.8.2
Copyright (c) 2004 Oleg Berngardt. All rights reserved.
Copyright (c) 2004 Alexander Djourik. All rights reserved.
FILE: Любэ - Комбат.flac
Size: 300181083 Hash: C5E1F4FFDAD4D832D087F2AE7DA15E00 Accuracy: -m0
Conclusion: CDDA 100%
Signature: 0324E144A709005894A52ECCB35DC0A000250E8F

(1997) - Песни о людях

Продолжительность: 00:36:58-Треклист:
01. Там за туманами (3:49)
02. Годы (4:22)
03. Скворцы (4:43)
04. Тянет к людям (3:45)
05. Ишо! (3:31)
06. Ребята с нашего двора (5:26)
07. Футбол (3:11)
08. Песня о друге (3:04)
09. Течёт река Волга (5:07)

Отчёт EAC

Exact Audio Copy V1.0 beta 1 from 15. November 2010
EAC extraction logfile from 25. May 2011, 1:04
Любэ / Песни о людях
Used drive  : PIONEER DVD-RW  DVR-212   Adapter: 8  ID: 0
Read mode               : Secure
Utilize accurate stream : Yes
Defeat audio cache      : Yes
Make use of C2 pointers : No
Read offset correction                      : 48
Overread into Lead-In and Lead-Out          : No
Fill up missing offset samples with silence : Yes
Delete leading and trailing silent blocks   : No
Null samples used in CRC calculations       : Yes
Used interface                              : Installed external ASPI interface
Used output format : Internal WAV Routines
Sample format      : 44.100 Hz; 16 Bit; Stereo
TOC of the extracted CD
Track |   Start  |  Length  | Start sector | End sector
---------------------------------------------------------
1  |  0:00.00 |  3:49.29 |         0    |    17203
2  |  3:49.29 |  4:21.66 |     17204    |    36844
3  |  8:11.20 |  4:42.54 |     36845    |    58048
4  | 12:53.74 |  3:44.63 |     58049    |    74911
5  | 16:38.62 |  3:31.31 |     74912    |    90767
6  | 20:10.18 |  5:25.65 |     90768    |   115207
7  | 25:36.08 |  3:11.02 |    115208    |   129534
8  | 28:47.10 |  3:03.68 |    129535    |   143327
9  | 31:51.03 |  5:07.33 |    143328    |   166385
Range status and errors
Selected range
Filename J:\MP3\Любэ (FLAC)\2007 - Полное Собрание Сочинений (Коллекционное издание)\1997 - Песни о людях\Любэ - Песни о людях.wav
Peak level 100.0 %
Extraction speed 0.9 X
Range quality 100.0 %
Test CRC B64C28DD
Copy CRC B64C28DD
Copy OK
No errors occurred
AccurateRip summary
Track  1  not present in database
Track  2  not present in database
Track  3  not present in database
Track  4  not present in database
Track  5  not present in database
Track  6  not present in database
Track  7  not present in database
Track  8  not present in database
Track  9  not present in database
None of the tracks are present in the AccurateRip database
End of status report
==== Log checksum EA2E708A500B3058714345EA151DD31E7E6CBBA0552519D555120CB3981F3062 ====

Отчёт auCDtect

-----------------------
DON'T MODIFY THIS FILE
-----------------------
PERFORMER: auCDtect Task Manager, ver. 1.5.1RC4 build 1.5.1.5
Copyright (c) 2008-2010 y-soft. All rights reserved
http://y-soft.org
ANALYZER: auCDtect: CD records authenticity detector, version 0.8.2
Copyright (c) 2004 Oleg Berngardt. All rights reserved.
Copyright (c) 2004 Alexander Djourik. All rights reserved.
FILE: Любэ - Песни о людях.flac
Size: 253768052 Hash: 2B26F785CCC366AE3F210EC4C17C8854 Accuracy: -m0
Conclusion: CDDA 100%
Signature: 4856D3ED24172B0A11C4528D66535693D65E4EFD

(2000) - Полустаночки

Продолжительность: 00:37:04-Треклист:
01. Полустаночки (3:30)
02. Эх, Москва (3:57)
03. Ветер-ветерок (3:24)
04. Кострома (2:33)
05. Старые друзья (3:55)
06. Солдат (5:10)
07. После войны (3:53)
08. Позови меня тихо по имени (2:46)
09. Дед (3:56)
10. Прорвёмся (опера) (4:02)

Отчёт EAC

Exact Audio Copy V1.0 beta 1 from 15. November 2010
EAC extraction logfile from 25. May 2011, 1:23
Любэ / Полустаночки
Used drive  : PIONEER DVD-RW  DVR-212   Adapter: 8  ID: 0
Read mode               : Secure
Utilize accurate stream : Yes
Defeat audio cache      : Yes
Make use of C2 pointers : No
Read offset correction                      : 48
Overread into Lead-In and Lead-Out          : No
Fill up missing offset samples with silence : Yes
Delete leading and trailing silent blocks   : No
Null samples used in CRC calculations       : Yes
Used interface                              : Installed external ASPI interface
Used output format : Internal WAV Routines
Sample format      : 44.100 Hz; 16 Bit; Stereo
TOC of the extracted CD
Track |   Start  |  Length  | Start sector | End sector
---------------------------------------------------------
1  |  0:00.00 |  3:29.72 |         0    |    15746
2  |  3:29.72 |  3:56.55 |     15747    |    33501
3  |  7:26.52 |  3:23.49 |     33502    |    48775
4  | 10:50.26 |  2:33.32 |     48776    |    60282
5  | 13:23.58 |  3:55.13 |     60283    |    77920
6  | 17:18.71 |  5:09.53 |     77921    |   101148
7  | 22:28.49 |  3:52.63 |    101149    |   118611
8  | 26:21.37 |  2:45.39 |    118612    |   131025
9  | 29:07.01 |  3:55.47 |    131026    |   148697
10  | 33:02.48 |  4:01.54 |    148698    |   166826
Range status and errors
Selected range
Filename J:\MP3\Любэ (FLAC)\2007 - Полное Собрание Сочинений (Коллекционное издание)\2000 - Полустаночки\Любэ - Полустаночки.wav
Peak level 99.9 %
Extraction speed 0.7 X
Range quality 100.0 %
Test CRC 54682846
Copy CRC 54682846
Copy OK
No errors occurred
AccurateRip summary
Track  1  not present in database
Track  2  not present in database
Track  3  not present in database
Track  4  not present in database
Track  5  not present in database
Track  6  not present in database
Track  7  not present in database
Track  8  not present in database
Track  9  not present in database
Track 10  not present in database
None of the tracks are present in the AccurateRip database
End of status report
==== Log checksum F111BAD36146480F8CE46E4DF9825B551858850F1E2AE2457B1B0D345B8965E2 ====

Отчёт auCDtect

-----------------------
DON'T MODIFY THIS FILE
-----------------------
PERFORMER: auCDtect Task Manager, ver. 1.5.1RC4 build 1.5.1.5
Copyright (c) 2008-2010 y-soft. All rights reserved
http://y-soft.org
ANALYZER: auCDtect: CD records authenticity detector, version 0.8.2
Copyright (c) 2004 Oleg Berngardt. All rights reserved.
Copyright (c) 2004 Alexander Djourik. All rights reserved.
FILE: Любэ - Полустаночки.flac
Size: 246324932 Hash: 588BDD0D8981DC508BE6FCDE00DFB23F Accuracy: -m0
Conclusion: CDDA 100%
Signature: EE19E59D946C3293721990E15DDC6C8BC9E669E9

(2002) - Давай за...

Продолжительность: 00:38:32-Треклист:
01. Любэ - Берёзы (3:04)
02. Любэ - Домой (3:23)
03. Любэ - Покосы (3:37)
04. Любэ - Это было, было... (2:18)
05. Любэ - Быбушка (3:49)
06. Любэ - Ты неси меня, река (Краса) (3:37)
07. Любэ - Две подружки (4:09)
08. Любэ - Поёт гитара (4:05)
09. Любэ - Охота (3:27)
10. Любэ - Давай за... (4:10)
11. Любэ - Березы (бонус трек) (2:52)

Отчёт EAC

Exact Audio Copy V1.0 beta 1 from 15. November 2010
EAC extraction logfile from 25. May 2011, 1:46
Любэ / Давай за...
Used drive  : PIONEER DVD-RW  DVR-212   Adapter: 8  ID: 0
Read mode               : Secure
Utilize accurate stream : Yes
Defeat audio cache      : Yes
Make use of C2 pointers : No
Read offset correction                      : 48
Overread into Lead-In and Lead-Out          : No
Fill up missing offset samples with silence : Yes
Delete leading and trailing silent blocks   : No
Null samples used in CRC calculations       : Yes
Used interface                              : Installed external ASPI interface
Used output format : Internal WAV Routines
Sample format      : 44.100 Hz; 16 Bit; Stereo
TOC of the extracted CD
Track |   Start  |  Length  | Start sector | End sector
---------------------------------------------------------
1  |  0:00.00 |  3:03.66 |         0    |    13790
2  |  3:03.66 |  3:22.40 |     13791    |    28980
3  |  6:26.31 |  3:37.17 |     28981    |    45272
4  | 10:03.48 |  2:18.19 |     45273    |    55641
5  | 12:21.67 |  3:49.27 |     55642    |    72843
6  | 16:11.19 |  3:37.20 |     72844    |    89138
7  | 19:48.39 |  4:09.26 |     89139    |   107839
8  | 23:57.65 |  4:05.26 |    107840    |   126240
9  | 28:03.16 |  3:27.08 |    126241    |   141773
10  | 31:30.24 |  4:10.14 |    141774    |   160537
11  | 35:40.38 |  2:51.68 |    160538    |   173430
Range status and errors
Selected range
Filename J:\MP3\Любэ (FLAC)\2007 - Полное Собрание Сочинений (Коллекционное издание)\2002 - Давай за\Любэ - Давай за....wav
Peak level 97.7 %
Extraction speed 0.4 X
Range quality 100.0 %
Test CRC 5ECBF65F
Copy CRC 5ECBF65F
Copy OK
No errors occurred
AccurateRip summary
Track  1  not present in database
Track  2  not present in database
Track  3  not present in database
Track  4  not present in database
Track  5  not present in database
Track  6  not present in database
Track  7  not present in database
Track  8  not present in database
Track  9  not present in database
Track 10  not present in database
Track 11  not present in database
None of the tracks are present in the AccurateRip database
End of status report
==== Log checksum 827F34CFA3E3772D524BDBA4EAD9399C988CD59B69AF421A9274D1AACBC69C6B ====

Отчёт auCDtect

-----------------------
DON'T MODIFY THIS FILE
-----------------------
PERFORMER: auCDtect Task Manager, ver. 1.5.1RC4 build 1.5.1.5
Copyright (c) 2008-2010 y-soft. All rights reserved
http://y-soft.org
ANALYZER: auCDtect: CD records authenticity detector, version 0.8.2
Copyright (c) 2004 Oleg Berngardt. All rights reserved.
Copyright (c) 2004 Alexander Djourik. All rights reserved.
FILE: Любэ - Давай за....flac
Size: 256331504 Hash: 77EAC1BDBEC96820229D6811EB19C082 Accuracy: -m0
Conclusion: CDDA 100%
Signature: B10E13D0138AE6FB7D84F271B5277935655356E6

(2005) - Рассея

Продолжительность: 00:38:02-Треклист:
01. От Волги До Енисея (3:41)
02. Русские (3:37)
03. Батька Махно (2:59)
04. Ясный Сокол (3:22)
05. Сестра (3:28)
06. Мой Конь (2:26)
07. Не смотри на часы (3:30)
08. По Высокой Траве (4:24)
09. Многая Лета Русской Земле (4:18)
10. Гимн России (3:26)
11. Березы (2:50)

Отчёт EAC

Exact Audio Copy V1.0 beta 1 from 15. November 2010
EAC extraction logfile from 25. May 2011, 2:05
Любэ / Рассея
Used drive  : PIONEER DVD-RW  DVR-212   Adapter: 8  ID: 0
Read mode               : Secure
Utilize accurate stream : Yes
Defeat audio cache      : Yes
Make use of C2 pointers : No
Read offset correction                      : 48
Overread into Lead-In and Lead-Out          : No
Fill up missing offset samples with silence : Yes
Delete leading and trailing silent blocks   : No
Null samples used in CRC calculations       : Yes
Used interface                              : Installed external ASPI interface
Used output format : Internal WAV Routines
Sample format      : 44.100 Hz; 16 Bit; Stereo
TOC of the extracted CD
Track |   Start  |  Length  | Start sector | End sector
---------------------------------------------------------
1  |  0:00.00 |  3:41.33 |         0    |    16607
2  |  3:41.33 |  3:36.64 |     16608    |    32871
3  |  7:18.22 |  2:59.11 |     32872    |    46307
4  | 10:17.33 |  3:22.36 |     46308    |    61493
5  | 13:39.69 |  3:28.18 |     61494    |    77111
6  | 17:08.12 |  2:25.42 |     77112    |    88028
7  | 19:33.54 |  3:29.47 |     88029    |   103750
8  | 23:03.26 |  4:23.60 |    103751    |   123535
9  | 27:27.11 |  4:18.07 |    123536    |   142892
10  | 31:45.18 |  3:26.25 |    142893    |   158367
11  | 35:11.43 |  2:50.36 |    158368    |   171153
Range status and errors
Selected range
Filename J:\MP3\Любэ (FLAC)\2007 - Полное Собрание Сочинений (Коллекционное издание)\2005 - Рассея\Любэ - Рассея.wav
Peak level 96.6 %
Extraction speed 0.4 X
Range quality 100.0 %
Test CRC 32D406BA
Copy CRC 32D406BA
Copy OK
No errors occurred
AccurateRip summary
Track  1  accurately ripped (confidence 3)  [4A3BAFA6]
Track  2  accurately ripped (confidence 3)  [7918223F]
Track  3  accurately ripped (confidence 3)  [213FC09B]
Track  4  accurately ripped (confidence 3)  [599EEDD7]
Track  5  accurately ripped (confidence 3)  [7544DA72]
Track  6  accurately ripped (confidence 3)  [EE1F363B]
Track  7  accurately ripped (confidence 3)  [2BAC6E1F]
Track  8  accurately ripped (confidence 3)  [13B7AEDD]
Track  9  accurately ripped (confidence 3)  [2450B3F4]
Track 10  accurately ripped (confidence 3)  [42A9064F]
Track 11  accurately ripped (confidence 3)  [4AA5CB14]
All tracks accurately ripped
End of status report
==== Log checksum 1448B799FF7061C2E78AD95D9F4642E51CC6950BEE1F97760435B9310BFA36DF ====

Отчёт auCDtect

-----------------------
DON'T MODIFY THIS FILE
-----------------------
PERFORMER: auCDtect Task Manager, ver. 1.5.1RC4 build 1.5.1.5
Copyright (c) 2008-2010 y-soft. All rights reserved
http://y-soft.org
ANALYZER: auCDtect: CD records authenticity detector, version 0.8.2
Copyright (c) 2004 Oleg Berngardt. All rights reserved.
Copyright (c) 2004 Alexander Djourik. All rights reserved.
FILE: Любэ - Рассея.flac
Size: 249191272 Hash: 05343D8369A14AE38CF01BF672D141F1 Accuracy: -m0
Conclusion: CDDA 100%
Signature: 55EB5307ACC184BD4875214CF2EDA20D0EECAA82
[Профиль] [ЛС]

Создавать темы 13-Авг-2015 10:29 (спустя 9 месяцев 20 дней)

Топик был перенесен из форума Отечественная в форум Pop
sergej644
 
Кто просматривает тему:

Показать сообщения:    

Текущее время: Сегодня 07:05

Часовой пояс: GMT



Вы не можете начинать темы
Вы не можете отвечать на сообщения
Вы не можете редактировать свои сообщения
Вы не можете удалять свои сообщения
Вы не можете голосовать в опросах
Вы не можете прикреплять файлы к сообщениям
Вы не можете скачивать файлы