Любой день / Any Day (2015) WEB-DL 720p | L2

 
Автор Сообщение

достали все ®

Пол:

Стаж: 1 год 8 месяцев

Сообщений: 6515



Награды: 12 (Подробнее)

Mega Seeder 4 (Количество: 1) Mega Seeder 3 (Количество: 1) Mega Seeder 2 (Количество: 1)
Торрент-статистика

Создавать темы 08-Апр-2015 03:36

[Цитировать]

Любой день / Any Day (2015)
Информация о фильме
Название: Любой день
Оригинальное название: Any Day
Год выхода: 2015
Жанр: триллер, драма, мелодрама
Режиссер: Растем Бренемен
В ролях: Шон Бин, Ева Лонгория, Кейт Уолш, Шейн Блэк, Том Арнольд, Леонард Робертс, Уилла Форд, Пол Бен-Виктор, Аэдин Минкс, Нолан Гросс
О фильме: Бывший боксер пытается начать новую жизнь, но ему на дает покоя его нелегкое прошлое.

Выпущено: США
Продолжительность: 01:39:06
Озвучивание: Любительское (двухголосое) [Студия пиратского дубляжа]
Файл
Формат: MKV
Качество: WEB-DL 720p
Видео: 3926 kb/s, 1280x532
Аудио: Russian: AC3, 384 kb/s (2 ch) / English: AC3, 384 kb/s (6 ch)
Субтитры: English

MI

Format : Matroska
Format version : Version 4 / Version 2
File size : 3.32 GiB
Duration : 1h 39mn
Overall bit rate : 4 789 Kbps
Encoded date : UTC 2015-04-07 19:39:42
Writing application : mkvmerge v6.1.0 ('Old Devil') built on Mar 4 2013 09:10:42
Writing library : libebml v1.3.0 + libmatroska v1.4.0
Video
ID : 1
Format : AVC
Format/Info : Advanced Video Codec
Format profile : Main@L3.1
Format settings, CABAC : No
Format settings, ReFrames : 2 frames
Codec ID : V_MPEG4/ISO/AVC
Duration : 1h 39mn
Bit rate : 3 926 Kbps
Width : 1 280 pixels
Height : 532 pixels
Display aspect ratio : 2.40:1
Frame rate : 23.976 fps
Color space : YUV
Chroma subsampling : 4:2:0
Bit depth : 8 bits
Scan type : Progressive
Bits/(Pixel*Frame) : 0.240
Stream size : 2.72 GiB (82%)
Language : English
Default : Yes
Forced : No
Color primaries : BT.709-5, BT.1361, IEC 61966-2-4, SMPTE RP177
Transfer characteristics : BT.709-5, BT.1361
Matrix coefficients : BT.709-5, BT.1361, IEC 61966-2-4 709, SMPTE RP177
Audio #1
ID : 2
Format : AC-3
Format/Info : Audio Coding 3
Mode extension : CM (complete main)
Format settings, Endianness : Big
Codec ID : A_AC3
Duration : 1h 39mn
Bit rate mode : Constant
Bit rate : 384 Kbps
Channel(s) : 2 channels
Channel positions : Front: L R
Sampling rate : 48.0 KHz
Bit depth : 16 bits
Compression mode : Lossy
Stream size : 272 MiB (8%)
Language : Russian
Default : Yes
Forced : No
Audio #2
ID : 3
Format : AC-3
Format/Info : Audio Coding 3
Mode extension : CM (complete main)
Format settings, Endianness : Big
Codec ID : A_AC3
Duration : 1h 39mn
Bit rate mode : Constant
Bit rate : 384 Kbps
Channel(s) : 6 channels
Channel positions : Front: L C R, Side: L R, LFE
Sampling rate : 48.0 KHz
Bit depth : 16 bits
Compression mode : Lossy
Stream size : 272 MiB (8%)
Language : English
Default : No
Forced : No
Text
ID : 4
Format : UTF-8
Codec ID : S_TEXT/UTF8
Codec ID/Info : UTF-8 Plain Text
Language : English
Default : No
Forced : No
Menu
00:00:00.000 : en:Chapter 1
00:09:35.000 : en:Chapter 2
00:18:49.000 : en:Chapter 3
00:28:25.000 : en:Chapter 4
00:37:23.000 : en:Chapter 5
00:44:33.000 : en:Chapter 6
00:53:27.000 : en:Chapter 7
01:01:27.000 : en:Chapter 8
01:10:17.000 : en:Chapter 9
01:18:31.000 : en:Chapter 10
01:28:08.000 : en:Chapter 11
01:35:12.000 : en:Chapter 12

Скриншоты

[Профиль] [ЛС]
Показать сообщения:    

Текущее время: Сегодня 20:10

Часовой пояс: GMT



Вы не можете начинать темы
Вы не можете отвечать на сообщения
Вы не можете редактировать свои сообщения
Вы не можете удалять свои сообщения
Вы не можете голосовать в опросах
Вы не можете прикреплять файлы к сообщениям
Вы не можете скачивать файлы