Любовь с акцентом (Резо Гигинеишвили) [2012, Россия, комедия, приключения, BDRip 720p] + Sub Eng

 
Автор Сообщение

TorrentFilm ®

Пол:

Стаж: 2 года

Сообщений: 7741



Награды: Нет

Торрент-статистика

Создавать темы 10-Июн-2015 00:04

[Цитировать]

Любовь с акцентом
Страна: Россия
Студия: апрельМИГпикчерс, Студия «Независимый Кинопроект»
Жанр: комедия, приключения
Год выпуска: 2012
Продолжительность: 01:43:49
Перевод: Не требуется
Cубтитры: английские--Режиссер: Резо Гигинеишвили--В ролях: Светлана Бондарчук, Филипп Янковский, Надежда Михалкова, Анна Михалкова, Никита Ефремов, Артур Смольянинов, Ирина Пегова, Ольга Баблуани, Дута Схиртладзе, Георгий Кипшидзе...--Описание: «Любовь с акцентом» - фильм о настоящей любви: яркой и страстной, зрелой и беспощадной, наивной и нелепой, счастливой и не очень. Истории героев сплетаются в одну большую ироничную комедию о том, что настоящая любовь не знает ни границ, ни законов, ни национальностей. Романтические приключения таких разных и непохожих друг на друга героев под аккомпанемент завораживающей южной природы.--Доп. информация: Kinopoisk | IMDB | Sample--Тип релиза: BDRip 720p Источник: Любовь с акцентом (2012) Blu-ray 1080p AVC DTS 5.1-HDCLUB
Контейнер: MKV
Видео: MPEG4/AVC, 1280x544, 6700 Kbps, 24.000 fps, 0.401 bit/pixel.
Аудио: DTS, 768 kbps, 48 kHz, 3/2 (L,C,R,l,r) + LFE ch
Формат субтитров: softsub (SRT)

MediaInfo/x264

x264 [info]: frame I:1131 Avg QP:16.42 size:152363
x264 [info]: frame P:34577 Avg QP:18.69 size: 57076
x264 [info]: frame B:113807 Avg QP:20.85 size: 26787

-
General
Unique ID : 236830872963811017192489260817212513009 (0xB22BF78D49C97A629213920013181AF1)
Complete name : Любовь с акцентом (2012).mkv
Format : Matroska
Format version : Version 4 / Version 2
File size : 5.39 GiB
Duration : 1h 43mn
Overall bit rate : 7 427 Kbps
Movie name : Любовь с акцентом (2012)
Encoded date : UTC 2015-06-03 07:55:26
Writing application : mkvmerge v7.8.0 ('River Man') 64bit built on Mar 27 2015 16:31:37
Writing library : libebml v1.3.1 + libmatroska v1.4.2
DURATION : 01:39:28.999000000
NUMBER_OF_FRAMES : 823
NUMBER_OF_BYTES : 27992
_STATISTICS_WRITING_APP : mkvmerge v7.8.0 ('River Man') 64bit built on Mar 27 2015 16:31:37
_STATISTICS_WRITING_DATE_UT : 2015-06-03 07:55:26
_STATISTICS_TAGS : BPS DURATION NUMBER_OF_FRAMES NUMBER_OF_BYTES
Video
ID : 1
Format : AVC
Format/Info : Advanced Video Codec
Format profile : High@L4.1
Format settings, CABAC : Yes
Format settings, ReFrames : 9 frames
Codec ID : V_MPEG4/ISO/AVC
Duration : 1h 43mn
Bit rate : 6 700 Kbps
Width : 1 280 pixels
Height : 544 pixels
Display aspect ratio : 2.35:1
Frame rate mode : Constant
Frame rate : 24.000 fps
Color space : YUV
Chroma subsampling : 4:2:0
Bit depth : 8 bits
Scan type : Progressive
Bits/(Pixel*Frame) : 0.401
Stream size : 4.73 GiB (88%)
Title : Любовь с акцентом
Writing library : x264 core 129 r2230 1cffe9f
Encoding settings : cabac=1 / ref=9 / deblock=1:-3:-3 / analyse=0x3:0x133 / me=umh / subme=11 / psy=1 / psy_rd=1.05:0.00 / mixed_ref=1 / me_range=32 / chroma_me=1 / trellis=2 / 8x8dct=1 / cqm=0 / deadzone=21,11 / fast_pskip=0 / chroma_qp_offset=-1 / threads=12 / lookahead_threads=2 / sliced_threads=0 / nr=0 / decimate=1 / interlaced=0 / bluray_compat=0 / constrained_intra=0 / bframes=8 / b_pyramid=2 / b_adapt=2 / b_bias=0 / direct=3 / weightb=1 / open_gop=0 / weightp=2 / keyint=250 / keyint_min=23 / scenecut=40 / intra_refresh=0 / rc_lookahead=60 / rc=2pass / mbtree=0 / bitrate=6700 / ratetol=1.0 / qcomp=0.60 / qpmin=0 / qpmax=69 / qpstep=4 / cplxblur=20.0 / qblur=0.5 / vbv_maxrate=50000 / vbv_bufsize=62500 / nal_hrd=none / ip_ratio=1.40 / pb_ratio=1.30 / aq=1:0.80
Language : Russian
Default : Yes
Forced : Yes
Audio
ID : 2
Format : DTS
Format/Info : Digital Theater Systems
Mode : 16
Format settings, Endianness : Big
Codec ID : A_DTS
Duration : 1h 43mn
Bit rate mode : Constant
Bit rate : 755 Kbps
Channel(s) : 6 channels
Channel positions : Front: L C R, Side: L R, LFE
Sampling rate : 48.0 KHz
Bit depth : 24 bits
Compression mode : Lossy
Stream size : 560 MiB (10%)
Language : Russian
Default : Yes
Forced : Yes
Text
ID : 3
Format : UTF-8
Codec ID : S_TEXT/UTF8
Codec ID/Info : UTF-8 Plain Text
Language : English
Default : No
Forced : No
Menu
00:00:00.000 : ru:Chapter 1
00:00:31.000 : ru:Chapter 2
00:09:32.166 : ru:Chapter 3
00:21:17.375 : ru:Chapter 4
00:31:37.000 : ru:Chapter 5
00:40:41.000 : ru:Chapter 6
00:56:51.000 : ru:Chapter 7
01:15:34.000 : ru:Chapter 8
01:35:09.000 : ru:Chapter 9

Скриншоты

[Профиль] [ЛС]
Показать сообщения:    

Текущее время: Сегодня 06:04

Часовой пояс: GMT



Вы не можете начинать темы
Вы не можете отвечать на сообщения
Вы не можете редактировать свои сообщения
Вы не можете удалять свои сообщения
Вы не можете голосовать в опросах
Вы не можете прикреплять файлы к сообщениям
Вы не можете скачивать файлы