Любовь сквозь время / Winter\'s Tale (Акива Голдсман / Akiva Goldsman) [2014, США, фэнтези, драма, мелодрама, детектив, BDRip 1080p] Dub + Original (Eng) + Sub (Rus, Eng)

 
Автор Сообщение

Создавать темы 19-Июл-2014 15:15

Любовь сквозь время / Winter's Tale
Страна: США
Производство: Village Roadshow Pictures, Warner Bros., Weed Road Pictures
Жанр: фэнтези, драма, мелодрама, детектив
Год выпуска: 2014
Продолжительность: 01:58:05
Перевод: Профессиональный (дублированный) Blu-ray CEE
Оригинальная аудиодорожка: английская
Cубтитры: русские, английские
Режиссер: Акива Голдсман / Akiva Goldsman
В ролях: Колин Фаррелл, Джессика Браун-Финдли, Дженнифер Коннелли, Уильям Хёрт, Ева Мари Сейнт, Расселл Кроу, Уилл Смит, Мэттью Бомер, Кевин Дьюранд, Люси Гриффитс, Кевин Корригэн, Грэм Грин, Финн Уиттрок, Кэйтлин Дюлэйни, Роб Кемпбелл, Норм Льюис
Описание: Питер Лэйк — талантливый вор, который и подумать не мог, что его собственное сердце украдет очаровательная Беверли Пенн. Но их любовь родилась под несчастливой звездой: Беверли угасает на глазах от неизлечимой болезни, а Питеру суждена куда более жестокая смерть от рук его давнего наставника, демона Перли Сомса. Питер отчаянно пытается спасти свою истинную любовь: сквозь века, вопреки силам тьмы, несмотря на то, что Перли делает все от него зависящее, чтобы одержать верх, ведь победитель получает все, а проигравший будет проклят навеки.

Релиз: fanatus
Качество видео: BDRip 1080p
Исходник: Winters.Tale.2014.COMPLETE.BLURAY-HDCLUB
Контейнер: MKV
Видео: MPEG-4 AVC, 10.4 Mbps , 1920x800 (2.40:1), 23.976 fps, 0.282 bit/pixel
Аудио 1: русский (AC3, 6 ch, 48 kHz, 640 kbps)
Аудио 2: английский (DTS, 6 ch, 48 kHz, 1510 kbps)
Формат субтитров: softsub (SRT)
Главы: есть

MediaInfo

General
Unique ID : 190834245527766745472590642269769952044 (0x8F9156BAC988FA85BF617421ECF7EB2C)
Complete name : E:\Ljubov_skvoz_vremja.2014.x264.BDRip.1080p.fanatus.mkv
Format : Matroska
Format version : Version 2
File size : 10.3 GiB
Duration : 1h 58mn
Overall bit rate : 12.5 Mbps
Movie name : Winter's Tale (2014) - fanatus
Encoded date : UTC 2014-07-07 04:47:00
Writing application : mkvmerge v3.4.0 ('Rapunzel') сборка от May 15 2010 09:38:20
Writing library : libebml v0.8.0 + libmatroska v0.9.0
Attachment : Yes
Video
ID : 1
Format : AVC
Format/Info : Advanced Video Codec
Format profile : High@L4.1
Format settings, CABAC : Yes
Format settings, ReFrames : 5 frames
Codec ID : V_MPEG4/ISO/AVC
Duration : 1h 58mn
Bit rate : 10.4 Mbps
Width : 1 920 pixels
Height : 800 pixels
Display aspect ratio : 2.40:1
Frame rate : 23.976 fps
Color space : YUV
Chroma subsampling : 4:2:0
Bit depth : 8 bits
Scan type : Progressive
Bits/(Pixel*Frame) : 0.282
Stream size : 8.37 GiB (81%)
Title : Winter's Tale (2014) BDRip(1080p)
Writing library : x264 core 142 r2431+42 c69a006 tMod [8-bit@all X86]
Encoding settings : cabac=1 / ref=5 / deblock=1:-3:-3 / analyse=0x3:0x113 / me=tesa / subme=11 / psy=1 / fade_compensate=0.00 / psy_rd=1.10:0.00 / mixed_ref=1 / me_range=64 / chroma_me=1 / trellis=2 / 8x8dct=1 / cqm=0 / deadzone=21,11 / fast_pskip=0 / chroma_qp_offset=-2 / threads=16 / lookahead_threads=4 / sliced_threads=0 / nr=0 / decimate=0 / interlaced=0 / bluray_compat=0 / constrained_intra=0 / fgo=0 / bframes=10 / b_pyramid=2 / b_adapt=2 / b_bias=0 / direct=3 / weightb=1 / open_gop=0 / weightp=2 / keyint=240 / keyint_min=23 / scenecut=40 / intra_refresh=0 / rc_lookahead=240 / rc=2pass / mbtree=0 / bitrate=10400 / ratetol=1.0 / qcomp=0.70 / qpmin=0:0:0 / qpmax=69:69:69 / qpstep=4 / cplxblur=20.0 / qblur=0.5 / vbv_maxrate=50000 / vbv_bufsize=62500 / nal_hrd=none / filler=0 / ip_ratio=1.30 / pb_ratio=1.20 / aq=4:0.90 / aq-sensitivity=10.00 / aq-factor=1.00:1.00:1.00 / aq2=0 / aq3=0
Language : English
Default : Yes
Forced : No
Audio #1
ID : 2
Format : AC-3
Format/Info : Audio Coding 3
Mode extension : CM (complete main)
Format settings, Endianness : Big
Codec ID : A_AC3
Duration : 1h 58mn
Bit rate mode : Constant
Bit rate : 640 Kbps
Channel(s) : 6 channels
Channel positions : Front: L C R, Side: L R, LFE
Sampling rate : 48.0 KHz
Bit depth : 16 bits
Compression mode : Lossy
Stream size : 541 MiB (5%)
Title : Dub (Blu-ray CEE)
Language : Russian
Default : Yes
Forced : No
Audio #2
ID : 3
Format : DTS
Format/Info : Digital Theater Systems
Codec ID : A_DTS
Duration : 1h 58mn
Bit rate mode : Constant
Bit rate : 1 510 Kbps
Channel(s) : 6 channels
Channel positions : Front: L C R, Side: L R, LFE
Sampling rate : 48.0 KHz
Bit depth : 24 bits
Compression mode : Lossy
Stream size : 1.25 GiB (12%)
Title : Original
Language : English
Default : No
Forced : No
Text #1
ID : 4
Format : UTF-8
Codec ID : S_TEXT/UTF8
Codec ID/Info : UTF-8 Plain Text
Title : Forced
Language : Russian
Default : Yes
Forced : Yes
Text #2
ID : 5
Format : UTF-8
Codec ID : S_TEXT/UTF8
Codec ID/Info : UTF-8 Plain Text
Title : Full
Language : Russian
Default : No
Forced : No
Text #3
ID : 6
Format : UTF-8
Codec ID : S_TEXT/UTF8
Codec ID/Info : UTF-8 Plain Text
Title : Full
Language : English
Default : No
Forced : No
Text #4
ID : 7
Format : UTF-8
Codec ID : S_TEXT/UTF8
Codec ID/Info : UTF-8 Plain Text
Title : SDH
Language : English
Default : No
Forced : No
Menu
00:00:00.000 : en:Chapter 01
00:10:45.853 : en:Chapter 02
00:20:09.958 : en:Chapter 03
00:30:41.047 : en:Chapter 04
00:40:14.453 : en:Chapter 05
00:52:37.904 : en:Chapter 06
01:00:17.447 : en:Chapter 07
01:09:26.996 : en:Chapter 08
01:20:44.005 : en:Chapter 09
01:30:54.991 : en:Chapter 10
01:39:53.654 : en:Chapter 11
01:50:38.506 : en:Chapter 12
01:58:04.744 : en:Chapter 13

x264 [info]

x264 [info]: 1920x800p 1:1 @ 24000/1001 fps (cfr)
x264 [info]: started at Fri Jul 04 12:38:38 2014
x264 [info]: frame I:1225 Avg QP:10.62 size:242344
x264 [info]: frame P:40990 Avg QP:12.90 size: 99398
x264 [info]: frame B:127655 Avg QP:13.89 size: 37871
x264 [info]: consecutive B-frames: 2.8% 5.4% 6.9% 37.1% 12.8% 17.5% 6.4% 9.8% 0.7% 0.2% 0.4%
x264 [info]: mb I I16..4: 5.1% 75.9% 19.0%
x264 [info]: mb P I16..4: 0.7% 11.9% 1.2% P16..4: 26.2% 36.1% 19.3% 0.0% 0.0% skip: 4.6%
x264 [info]: mb B I16..4: 0.0% 0.9% 0.1% B16..8: 33.7% 26.9% 7.0% direct: 8.6% skip:22.7% L0:45.6% L1:40.6% BI:13.7%
x264 [info]: 8x8 transform intra:84.3% inter:36.2%
x264 [info]: direct mvs spatial:99.2% temporal:0.8%
x264 [info]: coded y,uvDC,uvAC intra: 94.5% 90.8% 82.4% inter: 41.6% 26.2% 15.6%
x264 [info]: i16 v,h,dc,p: 48% 13% 5% 34%
x264 [info]: i8 v,h,dc,ddl,ddr,vr,hd,vl,hu: 11% 10% 13% 9% 11% 11% 10% 12% 13%
x264 [info]: i4 v,h,dc,ddl,ddr,vr,hd,vl,hu: 10% 10% 10% 8% 14% 13% 13% 10% 13%
x264 [info]: i8c dc,h,v,p: 53% 18% 17% 12%
x264 [info]: Weighted P-Frames: Y:2.2% UV:0.8%
x264 [info]: ref P L0: 55.5% 6.6% 21.4% 8.1% 7.7% 0.7% 0.0%
x264 [info]: ref B L0: 83.2% 12.4% 3.5% 1.0%
x264 [info]: ref B L1: 94.9% 5.1%
x264 [info]: kb/s:10394.49
x264 [info]: encoded 169870 frames, 0.8410 fps, 10394.49 kb/s, 8779.2 MB
x264 [info]: ended at Sun Jul 06 20:45:10 2014
x264 [info]: encoding duration 56:06:32

Скриншот c названием фильма

Торрент перезалит 07.07.2014, устранены артефакты.
 
Показать сообщения:    

Текущее время: Сегодня 00:33

Часовой пояс: GMT



Вы не можете начинать темы
Вы не можете отвечать на сообщения
Вы не можете редактировать свои сообщения
Вы не можете удалять свои сообщения
Вы не можете голосовать в опросах
Вы не можете прикреплять файлы к сообщениям
Вы не можете скачивать файлы