Любовь сквозь время / Winter\'s Tale (Акива Голдсман / Akiva Goldsman) [2014, США, фэнтези, драма, мелодрама, детектив, BDRip] Dub + Original + Sub (Rus, Eng)

 
Автор Сообщение

Создавать темы 14-Июл-2014 09:07

Любовь сквозь время / Winter's Tale
«Когда случаются чудеса»
- Страна: США / Warner Bros. Pictures, Village Roadshow Pictures, Weed Road Pictures
Жанр: Фэнтези, Драма, Мелодрама, Детектив
Год выпуска: 2014
Продолжительность: 01:58:05
Перевод:
Профессиональный (полное дублирование) [Лицензия «Blu-Ray CEE»]
Оригинальная звуковая дорожка: [Английская]-Cубтитры: Русские (Forced, Full), Английские (SDH), (внешние srt*)-Режиссер: Акива Голдсман / Akiva Goldsman
Продюсер: Акива Голдсман, Марк Э. Платт, Майкл Тадросс-В ролях: Колин Фаррелл, Рассел Кроу, Дженнифер Коннелли, Уилл Смит, Уильям Хёрт, Джессика Браун-Финдли, МакКайла Твиггс, Ева Мари Сэйнт, Рипли Собо, Кевин Корригэн, Джошуа Генри, Финн Уиттрок.-О фильме: Питер Лэйк — талантливый вор, который и подумать не мог, что его собственное сердце украдет очаровательная Беверли Пенн. Но их любовь родилась под несчастливой звездой: Беверли угасает на глазах от неизлечимой болезни, а Питеру суждена куда более жестокая смерть от рук его давнего наставника, демона Перли Сомса. Питер отчаянно пытается спасти свою истинную любовь: сквозь века, вопреки силам тьмы, несмотря на то, что Перли делает все от него зависящее, чтобы одержать верх, ведь победитель получает все, а проигравший будет проклят навеки.-КиноПоиск ~ 6.360 (6276 )
IMDB ~ 6.20 (12 016)
-Автор рипа : -Качество видео: BDRip [Рип с BDRemux / 1080p AVC DD5.1]
Формат видео: AVI
Видео: 720x304 (2.37:1), 23.976 fps, XviD build 73 ~1745 kbps avg, 0.33 bit/pixel
Аудиокодек: Dolby AC3 5.1
Аудио : 48 kHz/16-bit, AC3 Dolby Digital, 3/2 (L,C,R,l,r) + LFE ch, ~448 kbps | Dub
Аудио : 48 kHz/16-bit, AC3 Dolby Digital, 3/2 (L,C,R,l,r) + LFE ch, ~448 kbps | Original
Скачать: Семпл-
Mi">

Кадры из фильма Mi

Общее
Полное имя :[2014]_Lubov_Skvoz_Vremiya_BDRip.avi
Формат : AVI
Формат/Информация : Audio Video Interleave
Профиль формата : OpenDML
Размер файла : 2,18 Гбайт
Продолжительность : 1 ч. 58 м.
Общий поток : 2647 Кбит/сек
Название фильма : Любовь сквозь время / Winters Tale (2014) BDRip [Rensler]
Режиссёр : Rensler
Жанр : Фентези / Драма / Мелодрама / Детектив
Программа кодирования : VirtualDubModRus 1.5.10.2 (build 2542/release)
Библиотека кодирования : VirtualDubMod build 2542/release
Примечание : 12.06.2014
Видео
Идентификатор : 0
Формат : MPEG-4 Visual
Профиль формата : Advanced Simple@L5
Параметр BVOP формата : 2
Параметр QPel формата : Нет
Параметр GMC формата : Без точки перехода
Параметр матрицы формата : Выборочная
Идентификатор кодека : XVID
Идентификатор кодека/Подсказка : XviD
Продолжительность : 1 ч. 58 м.
Битрейт : 1745 Кбит/сек
Ширина : 720 пикселей
Высота : 304 пикселя
Соотношение сторон : 2,37:1
Частота кадров : 23,976 кадра/сек
Цветовое пространство : YUV
Субдискретизация насыщенности : 4:2:0
Битовая глубина : 8 бит
Тип развёртки : Прогрессивная
Метод сжатия : С потерями
Бит/(Пиксели*Кадры) : 0.330
Размер потока : 1,43 Гбайт (65%)
Библиотека кодирования : XviD 73
Аудио #1
Идентификатор : 1
Формат : AC-3
Формат/Информация : Audio Coding 3
Расширение режима : CM (complete main)
Идентификатор кодека : 2000
Продолжительность : 1 ч. 58 м.
Вид битрейта : Постоянный
Битрейт : 448 Кбит/сек
Каналы : 6 каналов
Расположение каналов : Front: L C R, Side: L R, LFE
Частота : 48,0 КГц
Битовая глубина : 16 бит
Метод сжатия : С потерями
Размер потока : 378 Мбайт (17%)
Выравнивание : Разделение по промежуткам
Продолжительность промежутка : 42 мс. (1,00 видеокадр)
Время предзагрузки промежутка : 500 мс.
Заголовок : Russian
Аудио #2
Идентификатор : 2
Формат : AC-3
Формат/Информация : Audio Coding 3
Расширение режима : CM (complete main)
Идентификатор кодека : 2000
Продолжительность : 1 ч. 58 м.
Вид битрейта : Постоянный
Битрейт : 448 Кбит/сек
Каналы : 6 каналов
Расположение каналов : Front: L C R, Side: L R, LFE
Частота : 48,0 КГц
Битовая глубина : 16 бит
Метод сжатия : С потерями
Размер потока : 378 Мбайт (17%)
Выравнивание : Разделение по промежуткам
Продолжительность промежутка : 42 мс. (1,00 видеокадр)
Время предзагрузки промежутка : 500 мс.
Заголовок : English
Спасибо за благодарность!
 
Показать сообщения:    

Текущее время: Сегодня 22:09

Часовой пояс: GMT



Вы не можете начинать темы
Вы не можете отвечать на сообщения
Вы не можете редактировать свои сообщения
Вы не можете удалять свои сообщения
Вы не можете голосовать в опросах
Вы не можете прикреплять файлы к сообщениям
Вы не можете скачивать файлы