Любовь сквозь время / Winter\'s Tale (Акива Голдсман / Akiva Goldsman) [2014 г., США, фэнтези, драма, мелодрама, BDRip] Dub

 
Автор Сообщение

Создавать темы 14-Июл-2014 09:07

Любовь сквозь времяWinter's Tale-«Когда случаются чудеса»- Год выпуска: 2014
Страна: США-Жанр: фэнтези, драма, мелодрама, детектив
Продолжительность: 01:58:04
Перевод: Профессиональный (полное дублирование)
Субтитры: нет-Режиссер: Акива Голдсман / Akiva Goldsman
Сценарий: Акива Голдсман / Akiva Goldsman, Марк Хелприн / Mark Helprin
Продюсер: Акива Голдсман / Akiva Goldsman, Марк Э. Платт / Marc E. Platt, Майкл Тадросс / Michael Tadross, Уильям М. Коннор / William M. Connor, Керри Фостер / Kerry Foster
Оператор: Калеб Дешанель / Caleb Deschanel
Композитор: Руперт Грегсон-Уильямс / Rupert Gregson-Williams, Ханс Циммер / Hans Zimmer-В ролях: Колин Фаррелл (Peter Lake), Джессика Браун-Финдли (Beverly Penn), Рассел Кроу (Pearly Soames), Дженнифер Коннелли (Virginia Gamely), Уилл Смит (Judge), Уильям Хёрт (Isaac Penn), МакКайла Твиггс (Young Willa), Ева Мари Сэйнт (Adult Willa), Рипли Собо (Abby), Кевин Корригэн (Romeo Tan), Джошуа Генри (Gravesman), Финн Уиттрок (Gabriel)
Дублёры: Илья Бледный (Peter Lake), Евгения Ваган (Beverly Penn), Александр Груздев (Pearly Soames), Рамиля Искандер (Virginia Gamely), Всеволод Кузнецов (Judge), Игорь Тарадайкин (Isaac Penn), Василиса Эльдарова (Young Willa), Александра Назарова (Adult Willa), Маша Емельянова (Abby), Даниил Эльдаров (Romeo Tan), Николай Быстров (Gabriel), Михаил Бескаравайный (Humpstone John)-Описание: Питер Лэйк - талантливый вор, который и подумать не мог, что его собственное сердце украдет очаровательная Беверли Пенн. Но их любовь родилась под несчастливой звездой: Беверли угасает на глазах от неизлечимой болезни, а Питеру суждена куда более жестокая смерть от рук его давнего наставника, демона Перли Сомса. Питер отчаянно пытается спасти свою истинную любовь: сквозь века, вопреки силам тьмы, несмотря на то, что Перли делает все от него зависящее, чтобы одержать верх, ведь победитель получает все, а проигравший будет проклят навеки.-kinopoisk.ru: 6.370 (6688)
imdb.com: 6.20 (12 016)
MPAA: PG-13 - Детям до 13 лет просмотр не желателен-Качество: BDRip / BDRemux
Контейнер: AVI
Видео: 688x288 (2.39:1), 23.976 fps, XviD build 65 ~745 kbps avg, 0.16 bit/pixel
Аудио: 48 kHz, MPEG Layer 3, 2 ch, ~128.00 kbps avg-

MediaInfo

General
Complete name                            : E:\Winter's.Tale.2014.BDRip.Dub.All.Films.avi
Format                                   : AVI
Format/Info                              : Audio Video Interleave
File size                                : 745 MiB
Duration                                 : 1h 58mn
Overall bit rate                         : 883 Kbps
Movie name                               : Winter's.Tale.2014.BDRip.Dub.All.Films.avi
Director                                 : DIABLO93
Genre                                    : Drama/Fantasy
Writing application                      : VirtualDubMod 1.5.10.3 | www.virtualdub-fr.org || (build 2550/release)
Original source form/Name                : Movie
Copyright                                : Rutracker.org (R.G. All Films)
Video
ID                                       : 0
Format                                   : MPEG-4 Visual
Format profile                           : Advanced Simple@L5
Format settings, BVOP                    : 2
Format settings, QPel                    : No
Format settings, GMC                     : No warppoints
Format settings, Matrix                  : Custom
Codec ID                                 : XVID
Codec ID/Hint                            : XviD
Duration                                 : 1h 58mn
Bit rate                                 : 746 Kbps
Width                                    : 688 pixels
Height                                   : 288 pixels
Display aspect ratio                     : 2.40:1
Frame rate                               : 23.976 fps
Color space                              : YUV
Chroma subsampling                       : 4:2:0
Bit depth                                : 8 bits
Scan type                                : Progressive
Compression mode                         : Lossy
Bits/(Pixel*Frame)                       : 0.157
Stream size                              : 630 MiB (84%)
Writing library                          : XviD 65
Audio
ID                                       : 1
Format                                   : MPEG Audio
Format version                           : Version 1
Format profile                           : Layer 3
Mode                                     : Joint stereo
Codec ID                                 : 55
Codec ID/Hint                            : MP3
Duration                                 : 1h 57mn
Bit rate mode                            : Constant
Bit rate                                 : 128 Kbps
Channel(s)                               : 2 channels
Sampling rate                            : 48.0 KHz
Compression mode                         : Lossy
Stream size                              : 108 MiB (14%)
Alignment                                : Aligned on interleaves
Interleave, duration                     : 42 ms (1.00 video frame)
Interleave, preload duration             : 504 ms

-

Сэмпл[url=http://multi-up.com/980296][color=indigo][font="Georgia

Скачать[/url]Скриншоты"]
Релиз группы:
-
 
Показать сообщения:    

Текущее время: Сегодня 03:10

Часовой пояс: GMT



Вы не можете начинать темы
Вы не можете отвечать на сообщения
Вы не можете редактировать свои сообщения
Вы не можете удалять свои сообщения
Вы не можете голосовать в опросах
Вы не можете прикреплять файлы к сообщениям
Вы не можете скачивать файлы