Любовь сквозь время / Winter\'s Tale (Акива Голдсман / Akiva Goldsman) [2014, США, фэнтези, драма, мелодрама, детектив, BDRip-AVC] Dub + Original + subs (full pack)

 
Автор Сообщение

Создавать темы 14-Июл-2014 09:07

Любовь сквозь время / Winter's Tale-«Когда случаются чудеса» -Страна: США
Студия: Warner Bros. Pictures, Village Roadshow Pictures, Weed Road Pictures
Жанр: фэнтези, драма, мелодрама, детектив
Год выпуска: 2014
Продолжительность: 01:58:05
Перевод: Профессиональный (дублированный) - | Лицензия - BD CEE |
Cубтитры: Russian (Forced), Russian(full), Ukrainian (Forced), Ukrainian(full), English, English (SDH) | Внешние srt* |
Оригинальная аудиодорожка: Английская-Режиссер: Акива Голдсман / Akiva Goldsman
В ролях: Колин Фаррелл, Рассел Кроу, Дженнифер Коннелли, Уилл Смит, Уильям Хёрт, Джессика Браун-Финдли, МакКайла Твиггс, Ева Мари Сэйнт, Рипли Собо, Кевин Корригэн, Джошуа Генри, Финн Уиттрок.
Описание: Питер Лэйк — талантливый вор, который и подумать не мог, что его собственное сердце украдет очаровательная Беверли Пенн. Но их любовь родилась под несчастливой звездой: Беверли угасает на глазах от неизлечимой болезни, а Питеру суждена куда более жестокая смерть от рук его давнего наставника, демона Перли Сомса. Питер отчаянно пытается спасти свою истинную любовь: сквозь века, вопреки силам тьмы, несмотря на то, что Перли делает все от него зависящее, чтобы одержать верх, ведь победитель получает все, а проигравший будет проклят навеки.-Автор рипа: _Flash- -Качество видео: BDRip-AVC | Winter's.Tale.2014.BDRemux 1080p |
Формат видео: MKV
Видео: х.264, 1024x426, 23,976 fps, 1753 Кbps, 0.170 bit/pixel
Аудио 1: 48 kHz, AC3 Dolby Digital, 3/2 (L,C,R,l,r) + LFE ch, 448.00 kbps | DUB - BD CEE
Аудио 2: 48 kHz, AC3 Dolby Digital, 3/2 (L,C,R,l,r) + LFE ch, 448.00 kbps | ENG-Дополнительно: Сохранены оригинальные чаптеры (главы) как на Blu-ray
-

Дополнительно о фильме:

Производство, студия дубляжа, прокат:

Знаете ли вы, что...

MediaInfo

General
Unique ID : 247640369430275443863490198501505489487 (0xBA4DCCDFF7F14F89A297AFA20BA5DA4F)
Complete name : C:\Users\1\Desktop\Winters.Tale.2014.BDRip-AVC.By_Flash.mkv
Format : Matroska
Format version : Version 2
File size : 2.18 GiB
Duration : 1h 58mn
Overall bit rate : 2 649 Kbps
Video
ID : 1
Format : AVC
Format/Info : Advanced Video Codec
Format profile : High@L4.1
Format settings, CABAC : Yes
Format settings, ReFrames : 11 frames
Codec ID : AVC
Duration : 1h 58mn
Bit rate : 1 753 Kbps
Width : 1 024 pixels
Height : 426 pixels
Display aspect ratio : 2.40:1
Frame rate mode : Constant
Frame rate : 23.976 fps
Color space : YUV
Chroma subsampling : 4:2:0
Bit depth : 8 bits
Scan type : Progressive
Bits/(Pixel*Frame) : 0.168
Stream size : 1.40 GiB (64%)
Writing library : x264 core 138 r2356 a1d3d17
Encoding settings : cabac=1 / ref=11 / deblock=1:-3:-2 / analyse=0x3:0x113 / me=umh / subme=10 / psy=1 / psy_rd=1.00:0.05 / mixed_ref=1 / me_range=48 / chroma_me=1 / trellis=2 / 8x8dct=1 / cqm=0 / deadzone=21,11 / fast_pskip=0 / chroma_qp_offset=-3 / threads=6 / lookahead_threads=1 / sliced_threads=0 / nr=0 / decimate=0 / interlaced=0 / bluray_compat=0 / constrained_intra=0 / bframes=12 / b_pyramid=2 / b_adapt=2 / b_bias=0 / direct=3 / weightb=1 / open_gop=0 / weightp=2 / keyint=240 / keyint_min=24 / scenecut=40 / intra_refresh=0 / rc_lookahead=40 / rc=2pass / mbtree=1 / bitrate=1753 / ratetol=1.0 / qcomp=0.60 / qpmin=0 / qpmax=69 / qpstep=4 / cplxblur=20.0 / qblur=0.5 / ip_ratio=1.40 / aq=1:1.00
Language : English
Default : Yes
Forced : No
Audio #1
ID : 2
Format : AC-3
Format/Info : Audio Coding 3
Mode extension : CM (complete main)
Format settings, Endianness : Big
Codec ID : A_AC3
Duration : 1h 58mn
Bit rate mode : Constant
Bit rate : 448 Kbps
Channel(s) : 6 channels
Channel positions : Front: L C R, Side: L R, LFE
Sampling rate : 48.0 KHz
Bit depth : 16 bits
Compression mode : Lossy
Stream size : 378 MiB (17%)
Default : Yes
Forced : No
Audio #2
ID : 3
Format : AC-3
Format/Info : Audio Coding 3
Mode extension : CM (complete main)
Format settings, Endianness : Big
Codec ID : A_AC3
Duration : 1h 58mn
Bit rate mode : Constant
Bit rate : 448 Kbps
Channel(s) : 6 channels
Channel positions : Front: L C R, Side: L R, LFE
Sampling rate : 48.0 KHz
Bit depth : 16 bits
Compression mode : Lossy
Stream size : 378 MiB (17%)
Default : No
Forced : No
Menu
00:00:00.000 : en:Chapter 01
00:10:45.852 : en:Chapter 02
00:20:09.958 : en:Chapter 03
00:30:41.047 : en:Chapter 04
00:40:14.452 : en:Chapter 05
00:52:37.903 : en:Chapter 06
01:00:17.447 : en:Chapter 07
01:09:26.996 : en:Chapter 08
01:20:44.005 : en:Chapter 09
01:30:54.990 : en:Chapter 10
01:39:53.654 : en:Chapter 11
01:50:38.506 : en:Chapter 12

Скриншот c названием фильма

Скриншоты

 
Показать сообщения:    

Текущее время: Сегодня 06:21

Часовой пояс: GMT



Вы не можете начинать темы
Вы не можете отвечать на сообщения
Вы не можете редактировать свои сообщения
Вы не можете удалять свои сообщения
Вы не можете голосовать в опросах
Вы не можете прикреплять файлы к сообщениям
Вы не можете скачивать файлы