Любовь от всех болезней / Supercondriaque (Дэни Бун / Dany Boon) [2014, Франция, комедия, HDRip] Dub

 
Автор Сообщение

TorrentFilm ®

Пол:

Стаж: 1 год 11 месяцев

Сообщений: 7741



Награды: Нет

Торрент-статистика

Создавать темы 07-Янв-2015 00:00

[Цитировать]

Любовь от всех болезней / Supercondriaque

Год выпуска: 2014
Страна: Франция
Жанр: комедия
Продолжительность: 01:47:29
Перевод: Професиональный (полное дублирование) Лицензия
Cубтитры: нет
Режиссер: Дэни Бун / Dany Boon
В ролях: Дэни Бун, Кад Мерад, Алис Поль, Жан-Ив Бертело, Жюдит Эль Зейн, Валери Боннетон, Марта Виллалонга, Бруно Лоше, Жером Коммандёр, Джонатан Коэн
Описание: Роман Фобер — чудак и ипохондрик. Он никогда не был женат. Вся его жизнь сводится к тому, чтобы выискивать у себя симптомы страшных, на деле не существующих, болезней. Каждой находкой он стремится поделиться со своим единственным другом — доктором Димитрием Звенкой. Димитрий решает помочь Роману найти женщину и таким образом излечить его от постоянной ипохондрии, которая становится невыносимой.
Автор: Scarabey
Качество видео: HDRip (исходник BDRip 720p)
Формат видео: AVI
Видео: 688x288 (2.39:1), 24 fps, XviD build 73 ~834 kbps avg, 0.17 bit/pixel
Аудио: 48 kHz, MPEG Layer 3, 2 ch, ~128.00 kbps avg

MediaInfo

General
Complete name : D:\Фильмы\Ljubov.ot.vseh.boleznej.2014_r5_[Scarabey].avi
Format : AVI
Format/Info : Audio Video Interleave
File size : 747 MiB
Duration : 1h 47mn
Overall bit rate : 972 Kbps
Writing application : VirtualDubMod 1.5.10.3 | www.virtualdub-fr.org || (build 2550/release)
Writing library : VirtualDubMod build 2550/release
Video
ID : 0
Format : MPEG-4 Visual
Format profile : Advanced Simple@L5
Format settings, BVOP : 1
Format settings, QPel : No
Format settings, GMC : No warppoints
Format settings, Matrix : Custom
Codec ID : XVID
Codec ID/Hint : XviD
Duration : 1h 47mn
Bit rate : 834 Kbps
Width : 688 pixels
Height : 288 pixels
Display aspect ratio : 2.40:1
Frame rate : 24.000 fps
Color space : YUV
Chroma subsampling : 4:2:0
Bit depth : 8 bits
Scan type : Progressive
Compression mode : Lossy
Bits/(Pixel*Frame) : 0.175
Stream size : 641 MiB (86%)
Writing library : XviD 73
Audio
ID : 1
Format : MPEG Audio
Format version : Version 1
Format profile : Layer 3
Codec ID : 55
Codec ID/Hint : MP3
Duration : 1h 47mn
Bit rate mode : Constant
Bit rate : 128 Kbps
Channel(s) : 2 channels
Sampling rate : 48.0 KHz
Compression mode : Lossy
Stream size : 98.4 MiB (13%)
Alignment : Aligned on interleaves
Interleave, duration : 42 ms (1.00 video frame)
Interleave, preload duration : 504 ms
Writing library : LAME3.99r
Encoding settings : -m s -V 4 -q 2 -lowpass 17 -b 128

Скриншот с названием фильма

Скриншоты

[Профиль] [ЛС]
Показать сообщения:    

Текущее время: Сегодня 18:00

Часовой пояс: GMT



Вы не можете начинать темы
Вы не можете отвечать на сообщения
Вы не можете редактировать свои сообщения
Вы не можете удалять свои сообщения
Вы не можете голосовать в опросах
Вы не можете прикреплять файлы к сообщениям
Вы не можете скачивать файлы