Любовь от всех болезней / Supercondriaque (Дани Бун / Dany Boon) [2014, Франция, Комедия, приключения, драма, мелодрама, BDRip] Dub (Вольга) + Original Fre

 
Автор Сообщение

TorrentFilm ®

Пол:

Стаж: 2 года

Сообщений: 7741



Награды: Нет

Торрент-статистика

Создавать темы 03-Янв-2015 00:00

[Цитировать]

Любовь от всех болезней / Supercondriaque
Выпущено: Франция, Pathé, Les Productions du Ch'timi
Жанр: Комедия, приключения, драма, мелодрама
Год выпуска: 2014
Продолжительность: 01:47:29
Перевод: Профессиональный (дублированный) Вольга, R5
Cубтитры: нет
Оригинальная аудиодорожка: французский
Режиссёр: Дани Бун / Dany Boon
В ролях: Дани Бун, Кад Мерад, Элис Поль, Жан-Ив Бертело, Жюдит Эль Зейн, Марта Виллалонга, Валери Боннетон, Бруно Лоше, Жером Коммандёр, Джонатан Коэн
Описание: Роман Фобер - чудак и ипохондрик. Он никогда не был женат. Вся его жизнь сводится к тому, чтобы выискивать у себя симптомы страшных, на деле не существующих, болезней. Каждой находкой он стремится поделиться со своим единственным другом - доктором Димитрием Звенкой. Димитрий решает помочь Роману найти женщину и таким образом излечить его от постоянной ипохондрии, которая становится невыносимой.

Качество видео: BDRip [Исходник: Supercondriaque.2014.VC-1.Blu-Ray.FRE.1080p]
Формат видео: AVI
Видео: XviD, 1890 Кбит/с, 720x304 (2.35:1), 24 кадр/с
Аудио #1: Русский, Dolby AC3, 48000 Гц, 384 Кбит/с, 6 каналов (5.1) - DUB, R5 [Вольга]
Аудио #2: Французский, Dolby AC3, 48000 Гц, 448 Кбит/с, 6 каналов (5.1) - Оригинал

Автор рипа - ivandubskoj

MediaInfo

General
Complete name : Lyubov'.ot.vseh.bolezney.2014.Dual.BDRip.avi
Format : AVI
Format/Info : Audio Video Interleave
Format profile : OpenDML
File size : 2.05 GiB
Duration : 1h 47mn
Overall bit rate : 2 736 Kbps
Movie name : Любовь от всех болезней / Supercondriaque (2014) BDRip
Genre : Комедия, приключения, драма, мелодрама
Recorded date : 01.11.2014
Writing application : VirtualDubMod 1.5.10.3 (build 2550/release)
Writing library : VirtualDubMod build 2550/release
Copyright : rip by ivandubskoj
Video
ID : 0
Format : MPEG-4 Visual
Format profile : Advanced Simple@L5
Format settings, BVOP : 1
Format settings, QPel : No
Format settings, GMC : No warppoints
Format settings, Matrix : Custom
Codec ID : XVID
Codec ID/Hint : XviD
Duration : 1h 47mn
Bit rate : 1 890 Kbps
Width : 720 pixels
Height : 304 pixels
Display aspect ratio : 2.35:1
Frame rate : 24.000 fps
Color space : YUV
Chroma subsampling : 4:2:0
Bit depth : 8 bits
Scan type : Progressive
Compression mode : Lossy
Bits/(Pixel*Frame) : 0.360
Stream size : 1.42 GiB (69%)
Writing library : XviD 73
Audio #1
ID : 1
Format : AC-3
Format/Info : Audio Coding 3
Mode extension : CM (complete main)
Codec ID : 2000
Duration : 1h 47mn
Bit rate mode : Constant
Bit rate : 384 Kbps
Channel(s) : 6 channels
Channel positions : Front: L C R, Side: L R, LFE
Sampling rate : 48.0 KHz
Bit depth : 16 bits
Compression mode : Lossy
Stream size : 295 MiB (14%)
Alignment : Split accross interleaves
Interleave, duration : 64 ms (1.54 video frames)
Interleave, preload duration : 500 ms
Title : Russian, DUB [Вольга]
Audio #2
ID : 2
Format : AC-3
Format/Info : Audio Coding 3
Mode extension : CM (complete main)
Codec ID : 2000
Duration : 1h 47mn
Bit rate mode : Constant
Bit rate : 448 Kbps
Channel(s) : 6 channels
Channel positions : Front: L C R, Side: L R, LFE
Sampling rate : 48.0 KHz
Bit depth : 16 bits
Compression mode : Lossy
Stream size : 344 MiB (16%)
Alignment : Split accross interleaves
Interleave, duration : 64 ms (1.54 video frames)
Interleave, preload duration : 500 ms
Title : French [Original]

Скриншот c названием фильма

Скриншоты

[Профиль] [ЛС]
Показать сообщения:    

Текущее время: Сегодня 00:36

Часовой пояс: GMT



Вы не можете начинать темы
Вы не можете отвечать на сообщения
Вы не можете редактировать свои сообщения
Вы не можете удалять свои сообщения
Вы не можете голосовать в опросах
Вы не можете прикреплять файлы к сообщениям
Вы не можете скачивать файлы