Любовь Орлова. Шипы и розы (Сергей Кожевников) [2015, Документальный, HDTV 1080i]

 
Автор Сообщение

TorrentFilm ®

Пол:

Стаж: 2 года

Сообщений: 7741



Награды: Нет

Торрент-статистика

Создавать темы 03-Апр-2015 00:02

[Цитировать]

Любовь Орлова. Шипы и розы
Год выпуска: 2015
Страна: Россия
Студия: Останкино
Жанр: Документальный
Продолжительность: 00:52:04
Перевод: Не требуется
Русские субтитры: нет
Режиссер: Сергей Кожевников
Описание: Любовь Орлова и Григорий Александров. Самая знаменитая пара отечественного кино. Она – главная героиня всех его фильмов. Он всю жизнь оставался в тени ее невероятной славы. Первая красавица советского кино снялась в семнадцати картинах, но по-настоящему блеснула всего в пяти. Каждый из этих фильмов вошел в золотой фонд отечественного кинематографа, а Любовь Орлова была его самой яркой звездой. Блондинка с прекрасным голосом и ослепительной улыбкой. В памяти миллионов людей Орлова осталась именно такой. Жизнь актрисы была похожа на праздничную открытку с позолотой и пожеланием большого счастья. Но у этой открытки была и другая сторона. Темная. Мрачная. Закрытая для посторонних глаз, полная тайн. Почему Любовь Орлова не выносила яркого света и всегда ложилась спать в одиночестве? Какие мужчины добивались её любви? Почему два десятка лет подряд люди из ближайшего окружения вождя называли Орлову любимой женщиной товарища Сталина? Кто пытался убить знаменитую актрису? Об этих и многих других загадках судьбы Любови Орловой мы расскажем в новом документальном фильме.
Доп. информация: Релиз -

Рип чистый. Без посторонних надписей. Выкладывается как есть.
Качество: HDTV 1080i
Контейнер: TS
Видео кодек: AVC
Аудио кодек: MP2
Видео: 1920x1080 (16:9) 25.000 fps ~ 11.8 Mbps, 0.228 bit/pixel
Аудио 1: AC3, 6 channels, 48000Hz, 384 Кбит/сек
Аудио 2: MPEG Audio 48000Hz stereo 192 Кбит/сек 2 channels

Скриншоты

MI

GeneralID : 1 (0x1)Complete name : H:\ВЫКЛАДКА\Март\Любовь Орлова. Шипы и розы (2015, Документальный, HDTV 1080i) (MYDIMKA).tsFormat : MPEG-TSFile size : 4.47 GiBDuration : 50mn 4sOverall bit rate mode : VariableOverall bit rate : 12.8 Mbps
VideoID : 1603 (0x643)Menu ID : 603 (0x25B)Format : AVCFormat/Info : Advanced Video CodecFormat profile : High@L4.0Format settings, CABAC : YesFormat settings, ReFrames : 3 framesCodec ID : 27Duration : 50mn 4sBit rate : 11.6 MbpsWidth : 1 920 pixelsHeight : 1 080 pixelsDisplay aspect ratio : 16:9Frame rate : 25.000 fpsStandard : ComponentColor space : YUVChroma subsampling : 4:2:0Bit depth : 8 bitsScan type : InterlacedScan order : Top Field FirstBits/(Pixel*Frame) : 0.223Stream size : 4.05 GiB (91%)Color primaries : BT.709Transfer characteristics : BT.709Matrix coefficients : BT.709
Audio #1ID : 2603 (0xA2B)Menu ID : 603 (0x25B)Format : AC-3Format/Info : Audio Coding 3Mode extension : CM (complete main)Format settings, Endianness : BigCodec ID : 6Duration : 50mn 4sBit rate mode : ConstantBit rate : 384 KbpsChannel(s) : 6 channelsChannel positions : Front: L C R, Side: L R, LFESampling rate : 48.0 KHzBit depth : 16 bitsCompression mode : LossyDelay relative to video : -40msStream size : 138 MiB (3%)Language : Russian
Audio #2ID : 2604 (0xA2C)Menu ID : 603 (0x25B)Format : MPEG AudioFormat version : Version 1Format profile : Layer 2Codec ID : 3Duration : 50mn 4sBit rate mode : ConstantBit rate : 192 KbpsChannel(s) : 2 channelsSampling rate : 48.0 KHzCompression mode : LossyDelay relative to video : -40msStream size : 68.8 MiB (2%)Language : Russian
[Профиль] [ЛС]
Показать сообщения:    

Текущее время: Сегодня 16:51

Часовой пояс: GMT



Вы не можете начинать темы
Вы не можете отвечать на сообщения
Вы не можете редактировать свои сообщения
Вы не можете удалять свои сообщения
Вы не можете голосовать в опросах
Вы не можете прикреплять файлы к сообщениям
Вы не можете скачивать файлы