Любовь Орлова: Шипы и Розы (Сергей Кожевников) [2015, Документальный, HDTV 720p]

 
Автор Сообщение

TorrentFilm ®

Пол:

Стаж: 2 года

Сообщений: 7741



Награды: Нет

Торрент-статистика

Создавать темы 26-Мар-2015 00:02

[Цитировать]

Любовь Орлова: Шипы и Розы- Год выпуска: 2015
Страна: Россия
Канал: Первый Канал HD | ЗАО "Телекомпания "Останкино"
Жанр: Документальный
Продолжительность: 0:50:05
Продюсер: Сергей Медведев
Автор: Анатолий Ярошевский
Режиссер: Сергей Кожевников-Описание: Любовь Орлова и Григорий Александров - самая знаменитая пара отечественного кино. Она - главная героиня всех его фильмов. Он всю жизнь оставался в тени ее невероятной славы. Первая красавица советского кино снялась в семнадцати картинах, но по-настоящему блеснула всего в пяти. Каждый из этих фильмов вошел в золотой фонд отечественного кинематографа, а Любовь Орлова была его самой яркой звездой. Блондинка с прекрасным голосом и ослепительной улыбкой. В памяти миллионов людей Орлова осталась именно такой.-Автор рипа: lrn
Автор записи: GeneralFilm
Сэмпл: sendfile-Тип релиза: HDTV 720p
Контейнер: MKV
Видео: 1280x720 (16:9), 25,000 fps, H264, ~4000 kbps avg, ~0.174 bit/pixel
Аудио: 48 kHz, AC3 Dolby Digital, 3/2 (L,C,R,l,r) + LFE ch, ~384.00 kbps avg-

MediaInfo

GeneralUnique ID : 189508116847846526913193163957912133143 (0x8E91EF89A7346F2A993F4C7AB526DE17)Complete name : E:\uTorrent.Temp\Temp\Lyubov.Orlova.Shipy.i.Rozy.2015.HDTV.720p.x264-lrn.mkvFormat : MatroskaFormat version : Version 4 / Version 2File size : 1.53 GiBDuration : 50mn 5sOverall bit rate : 4 386 KbpsMovie name : Lyubov.Orlova.Shipy.i.Rozy.2015.HDTV.720p.x264-lrnEncoded date : UTC 2010-02-22 21:41:31Writing application : mkvmerge v5.9.0 ('On The Loose') built on Dec 9 2012 15:37:01Writing library : libebml v1.3.0 + libmatroska v1.4.0DURATION : 00:50:05.240000000NUMBER_OF_FRAMES : 75131NUMBER_OF_BYTES : 1502854110_STATISTICS_WRITING_APP : mkvmerge v7.0.0 ('Where We Going') 32bit built on Jun 9 2014 15:08:34_STATISTICS_WRITING_DATE_UT : 2015-03-21 11:54:42_STATISTICS_TAGS : BPS DURATION NUMBER_OF_FRAMES NUMBER_OF_BYTES
VideoID : 1Format : AVCFormat/Info : Advanced Video CodecFormat profile : High@L4.1Format settings, CABAC : YesFormat settings, ReFrames : 8 framesCodec ID : V_MPEG4/ISO/AVCDuration : 50mn 5sBit rate : 4 000 KbpsWidth : 1 280 pixelsHeight : 720 pixelsDisplay aspect ratio : 16:9Frame rate mode : ConstantFrame rate : 25.000 fpsColor space : YUVChroma subsampling : 4:2:0Bit depth : 8 bitsScan type : ProgressiveBits/(Pixel*Frame) : 0.174Stream size : 1.37 GiB (89%)Writing library : x264 core 142 r2431 ac76440Encoding settings : cabac=1 / ref=8 / deblock=1:-3:-3 / analyse=0x3:0x133 / me=umh / subme=9 / psy=1 / psy_rd=1.00:0.00 / mixed_ref=1 / me_range=32 / chroma_me=1 / trellis=2 / 8x8dct=1 / cqm=0 / deadzone=21,11 / fast_pskip=1 / chroma_qp_offset=-2 / threads=12 / lookahead_threads=2 / sliced_threads=0 / nr=0 / decimate=1 / interlaced=0 / bluray_compat=0 / constrained_intra=0 / bframes=8 / b_pyramid=2 / b_adapt=2 / b_bias=0 / direct=3 / weightb=1 / open_gop=0 / weightp=2 / keyint=250 / keyint_min=25 / scenecut=40 / intra_refresh=0 / rc_lookahead=50 / rc=2pass / mbtree=1 / bitrate=4000 / ratetol=1.0 / qcomp=0.60 / qpmin=0 / qpmax=69 / qpstep=4 / cplxblur=20.0 / qblur=0.5 / vbv_maxrate=62500 / vbv_bufsize=78125 / nal_hrd=none / filler=0 / ip_ratio=1.40 / aq=1:1.00Default : YesForced : No
AudioID : 2Format : AC-3Format/Info : Audio Coding 3Mode extension : CM (complete main)Format settings, Endianness : BigCodec ID : A_AC3Duration : 50mn 5sBit rate mode : ConstantBit rate : 384 KbpsChannel(s) : 6 channelsChannel positions : Front: L C R, Side: L R, LFESampling rate : 48.0 KHzBit depth : 16 bitsCompression mode : LossyStream size : 138 MiB (9%)Language : RussianDefault : YesForced : No

x264 log

raw [info]: 1280x720p 1:1 @ 25/1 fps (cfr)x264 [info]: using SAR=1/1x264 [info]: using cpu capabilities: MMX2 SSE2Fast SSSE3 SSE4.2 AVXx264 [info]: profile High, level 4.1x264 [info]: frame I:557 Avg QP:15.81 size: 86675x264 [info]: frame P:19197 Avg QP:18.64 size: 36044x264 [info]: frame B:55377 Avg QP:20.67 size: 13772x264 [info]: consecutive B-frames: 2.6% 4.7% 10.5% 45.6% 13.8% 18.6% 2.4% 1.5% 0.2%x264 [info]: mb I I16..4: 8.0% 78.6% 13.4%x264 [info]: mb P I16..4: 3.0% 12.4% 1.2% P16..4: 48.7% 18.9% 11.4% 0.4% 0.1% skip: 3.8%x264 [info]: mb B I16..4: 0.2% 1.6% 0.1% B16..8: 41.6% 11.6% 2.4% direct: 9.6% skip:32.8% L0:42.5% L1:45.4% BI:12.1%x264 [info]: 8x8 transform intra:76.7% inter:72.3%x264 [info]: direct mvs spatial:98.2% temporal:1.8%x264 [info]: coded y,uvDC,uvAC intra: 76.2% 57.8% 25.7% inter: 30.6% 27.5% 1.4%x264 [info]: i16 v,h,dc,p: 47% 11% 6% 36%x264 [info]: i8 v,h,dc,ddl,ddr,vr,hd,vl,hu: 14% 9% 5% 8% 13% 15% 12% 13% 12%x264 [info]: i4 v,h,dc,ddl,ddr,vr,hd,vl,hu: 14% 8% 3% 9% 14% 16% 13% 12% 12%x264 [info]: i8c dc,h,v,p: 43% 25% 20% 13%x264 [info]: Weighted P-Frames: Y:10.7% UV:3.3%x264 [info]: ref P L0: 47.8% 11.5% 17.5% 6.6% 5.5% 4.2% 3.7% 2.5% 0.6% 0.0%x264 [info]: ref B L0: 76.9% 11.1% 5.2% 2.7% 2.2% 1.3% 0.6%x264 [info]: ref B L1: 94.2% 5.8%x264 [info]: kb/s:4000.62encoded 75131 frames, 11.31 fps, 4000.62 kb/s

Скриншоты

-
[Профиль] [ЛС]
Показать сообщения:    

Текущее время: Сегодня 16:22

Часовой пояс: GMT



Вы не можете начинать темы
Вы не можете отвечать на сообщения
Вы не можете редактировать свои сообщения
Вы не можете удалять свои сообщения
Вы не можете голосовать в опросах
Вы не можете прикреплять файлы к сообщениям
Вы не можете скачивать файлы