Любовь не по размеру / Un homme à la hauteur (2016) WEB-DL 1080p | iTunes

 
Автор Сообщение

BOSS ®

Пол:

Стаж: 2 года 1 месяц

Сообщений: 3744

Откуда: ODESSA



Награды: 20 (Подробнее)

За внесенный вклад в развитие сайта (Количество: 1) Top Seeder 3 (Количество: 1) Mega Releaser 3 (Количество: 1)
Торрент-статистика

Создавать темы 04-Июл-2016 04:42

[Цитировать]

Информация о фильме
Название: Любовь не по размеру
Оригинальное название: Un homme à la hauteur
Год выхода: 2016
Жанр: комедия
Режиссер: Лоран Тирар
В ролях: Жан Дюжарден, Виржини Эфира, Седрик Кан, Стефани Папаниан, Сезар Домбой, Эдмон Франчи, Мануэлль Гайар, Бруно Гомила, Камилль Дамур, Франсуа-Доминик Блен
О фильме: Потерянный мобильник оборачивается для Дианы знакомством с поистине невероятным человеком по имени Александр. Он умен, неутомим и чертовски обаятелен. У него замечательное чувство юмора и, кажется, нет недостатков. Кроме одного… Его рост — чуть больше метра. Это небольшое препятствие оказывается источником огромных проблем и множества неудобных и смешных ситуаций для Дианы. Но настоящая любовь может победить всё, если, конечно, это очень большая любовь.

Выпущено: Франция / Canal+ [fr], Centre National de la Cinématographie (CNC), Ciné, Creative Andina, M6 Films, Saint Sébastien Froissart, Scope Pictures
Продолжительность: 01:34:00
Озвучивание: Дублированное [iTunes]
Файл
Формат: MKV
Качество: WEB-DL 1080p
Видео: MPEG-4 AVC, 4312 kb/s, 1920x800
Аудио: AC3, 384 kb/s (6 ch)

MI

Format : Matroska
Format version : Version 4 / Version 2
File size : 3.15 GiB
Duration : 1h 34mn
Overall bit rate : 4 792 Kbps
Movie name : UN_HOMME_WEB_DL_1080p-BLUEBIRD
Encoded date : UTC 2016-07-03 18:18:27
Writing application : mkvmerge v7.1.0 ('Good Love') 64bit built on Jul 27 2014 13:06:55
Writing library : libebml v1.3.0 + libmatroska v1.4.1
DURATION : 01:34:00.224000000
NUMBER_OF_FRAMES : 176257
NUMBER_OF_BYTES : 270730752
_STATISTICS_WRITING_APP : mkvmerge v7.1.0 ('Good Love') 64bit built on Jul 27 2014 13:06:55
_STATISTICS_WRITING_DATE_UTC : 2016-07-03 18:18:27
_STATISTICS_TAGS : BPS DURATION NUMBER_OF_FRAMES NUMBER_OF_BYTES
Video
ID : 1
Format : AVC
Format/Info : Advanced Video Codec
Format profile : High@L4
Format settings, CABAC : Yes
Format settings, ReFrames : 5 frames
Codec ID : V_MPEG4/ISO/AVC
Duration : 1h 34mn
Bit rate : 4 312 Kbps
Width : 1 920 pixels
Height : 800 pixels
Display aspect ratio : 2.40:1
Frame rate mode : Constant
Frame rate : 25.000 fps
Color space : YUV
Chroma subsampling : 4:2:0
Bit depth : 8 bits
Scan type : Progressive
Bits/(Pixel*Frame) : 0.112
Stream size : 2.83 GiB (90%)
Title : UN_HOMME_WEB_DL_1080p-BLUEBIRD
Language : English
Default : Yes
Forced : No
Color range : Limited
Color primaries : BT.709
Transfer characteristics : BT.709
Matrix coefficients : BT.709
Audio
ID : 2
Format : AC-3
Format/Info : Audio Coding 3
Mode extension : CM (complete main)
Format settings, Endianness : Big
Codec ID : A_AC3
Duration : 1h 34mn
Bit rate mode : Constant
Bit rate : 384 Kbps
Channel(s) : 6 channels
Channel positions : Front: L C R, Side: L R, LFE
Sampling rate : 48.0 KHz
Bit depth : 16 bits
Compression mode : Lossy
Stream size : 258 MiB (8%)
Title : [DUB] DD 5.1 @ 384 kbps (iTunes)
Language : Russian
Default : Yes
Forced : No
Menu
00:00:00.000 : en:Глава 1
00:06:20.680 : en:Глава 2
00:11:39.000 : en:Глава 3
00:17:38.760 : en:Глава 4
00:23:42.120 : en:Глава 5
00:29:31.360 : en:Глава 6
00:35:27.080 : en:Глава 7
00:40:54.320 : en:Глава 8
00:45:59.320 : en:Глава 9
00:53:04.120 : en:Глава 10
00:59:36.160 : en:Глава 11
01:05:14.440 : en:Глава 12
01:11:09.720 : en:Глава 13
01:16:59.600 : en:Глава 14
01:22:31.920 : en:Глава 15

Скриншоты

Релиз:

[Профиль] [ЛС]
Показать сообщения:    

Текущее время: Сегодня 09:57

Часовой пояс: GMT



Вы не можете начинать темы
Вы не можете отвечать на сообщения
Вы не можете редактировать свои сообщения
Вы не можете удалять свои сообщения
Вы не можете голосовать в опросах
Вы не можете прикреплять файлы к сообщениям
Вы не можете скачивать файлы