Любовь на подиуме / Milosc Na Wybiegu (Кшиштоф Лэнг / Krzysztof Lang) [2009, Польша, романтическая мелодрама, DVDRip] Sub Rus + Original Pol

 
Автор Сообщение

TorrentFilm ®

Пол:

Стаж: 1 год 11 месяцев

Сообщений: 7741



Награды: Нет

Торрент-статистика

Создавать темы 09-Мар-2015 00:01

[Цитировать]

Любовь на подиуме / Milosc Na Wybiegu
Страна: Польша
Жанр: романтическая мелодрама
Год выпуска: 2009
Продолжительность: 01:34:03
Перевод: Субтитры
Cубтитры: русские
Оригинальная аудиодорожка: польский
Режиссер: Кшиштоф Лэнг / Krzysztof Lang
В ролях: Каролина Горчица, Марчин Дорочиньский, Изабела Куна, Уршула Грабовска, Томаш Кароляк, Барбара Брыльска, Марта Дабровска, Энрике Альсидес, Анна Гужик, Каролина Малиновска, Ола Фрыч и другие.
Описание: История 19-летней девушки,которая решилась попробовать что-то новое,жертвуя чем-то одним и приобретая другое,преодолевая преграды и встречая новых людей.
Доп. информация:
Перевод: Maxj
Редакция: antoniolagrande
Сэмпл: https://www.sendspace.com/file/ua7in1
Качество видео: DVDRip
Формат видео: AVI
Видео: 720x304 (2.35:1), 25 fps, XviD MPEG-4 ~1762 kbps avg
Аудио: AC3, 48 KHz, 448 kb/s (6 ch)
Формат субтитров: softsub (SRT)

MediaInfo

D:\Milosc na wybiegu_1.46\Milosc na wybiegu.avi
General
Complete name : D:\Milosc na wybiegu_1.46\Milosc na wybiegu.avi
Format : AVI
Format/Info : Audio Video Interleave
File size : 1.46 GiB
Duration : 1h 34mn
Overall bit rate : 2 220 Kbps
Video #0
ID : 0
Format : MPEG-4 Visual
Format profile : Advanced Simple@L5
Format settings, BVOP : 1
Format settings, QPel : No
Format settings, GMC : No warppoints
Format settings, Matrix : Default (H.263)
Codec ID : XVID
Codec ID/Hint : XviD
Duration : 1h 34mn
Bit rate : 1 762 Kbps
Width : 720 pixels
Height : 304 pixels
Display aspect ratio : 2.35:1
Frame rate : 25.000 fps
Color space : YUV
Chroma subsampling : 4:2:0
Bit depth : 8 bits
Scan type : Progressive
Compression mode : Lossy
Bits/(Pixel*Frame) : 0.322
Stream size : 1.16 GiB (79%)
Writing library : XviD 1.1.0 (UTC 2005-11-22)
Audio #1
ID : 1
Format : AC-3
Format/Info : Audio Coding 3
Mode extension : CM (complete main)
Format settings, Endianness : Big
Codec ID : 2000
Duration : 1h 34mn
Bit rate mode : Constant
Bit rate : 448 Kbps
Channel(s) : 6 channels
Channel positions : Front: L C R, Side: L R, LFE
Sampling rate : 48.0 KHz
Bit depth : 16 bits
Compression mode : Lossy
Stream size : 301 MiB (20%)
Alignment : Split accross interleaves
Interleave, duration : 40 ms (1.00 video frame)
Interleave, preload duration : 500 ms

Скриншот c названием фильма

Скриншоты

Пример субтитров

скрытый текст

368
00:41:52,960 --> 00:41:56,600
Схвати трос, откинься и подержись.
369
00:41:58,240 --> 00:42:01,160
Хорошо. Прекрасно. Держись.
370
00:42:18,080 --> 00:42:19,480
Окей, прыгай.
371
00:42:48,720 --> 00:42:52,000
Мы плаваем дельфином, правильно?
372
00:42:55,440 --> 00:42:57,840
Так, что теперь?
373
00:43:00,280 --> 00:43:03,360
- Я иду спать.
- Ага, ну тогда пока.
374
00:45:37,360 --> 00:45:39,760
- Слушаю.
- Идёшь? Алло?
375
00:45:39,880 --> 00:45:45,640
Пани Юлия, вы здесь?
Я хотел бы выразить свою благодарность.
376
00:45:46,800 --> 00:45:49,972
У меня есть планы на ваше будущее.
377
00:45:55,360 --> 00:46:00,280
Может быть, мы могли бы выпить
вина и немного расслабиться.
378
00:46:00,520 --> 00:46:02,640
Пани Юлия, вы там?
379
00:46:22,680 --> 00:46:26,760
Посмотри на меня, смотри в камеру.
380
00:46:28,640 --> 00:46:29,920
Улыбнись.
381
00:46:33,320 --> 00:46:37,720
Хорошо. Поправьте волосы.
Смени кассету.
382
00:48:06,960 --> 00:48:09,160
Я думал, ты не любишь море.
383
00:48:09,520 --> 00:48:11,920
А я думала, что ты не любишь свою работу.
384
00:48:12,400 --> 00:48:13,640
Почему?
385
00:48:14,920 --> 00:48:17,040
Это заметно.
386
00:48:18,080 --> 00:48:21,120
Улыбнись. Оу, красавчик.
387
00:48:22,600 --> 00:48:26,600
Мы ещё увидим твой успех.
388
00:48:27,760 --> 00:48:30,920
У тебя с Марленой серьёзно?
389
00:48:31,840 --> 00:48:34,400
Я видела, в аэропорту.
390
00:48:35,400 --> 00:48:39,080
Ты хочешь, чтобы я сказал,
что это серьезно?
391
00:48:43,960 --> 00:48:45,160
Нет.
[Профиль] [ЛС]

Создавать темы 06-Авг-2015 22:42 (спустя 4 месяца 28 дней)

Топик был перенесен из форума Фильмы до 2014 года в форум Фильмы до 2012 года
sergej644
 

Создавать темы 12-Июн-2016 08:49 (спустя 1 год 3 месяца)

Топик был перенесен из форума Фильмы 2011 года в форум Фильмы 2009 года
Russian Mafia
 
Показать сообщения:    

Текущее время: Сегодня 20:03

Часовой пояс: GMT



Вы не можете начинать темы
Вы не можете отвечать на сообщения
Вы не можете редактировать свои сообщения
Вы не можете удалять свои сообщения
Вы не можете голосовать в опросах
Вы не можете прикреплять файлы к сообщениям
Вы не можете скачивать файлы