Любовь на линии фронта / The Poet (Дэмиан Ли / Damian Lee) [2007, Канада, драма, BDRip] MVO (R5) + Sub (Eng) + Original (Eng)

 
Автор Сообщение

TorrentFilm ®

Пол:

Стаж: 2 года

Сообщений: 7741



Награды: Нет

Торрент-статистика

Создавать темы 09-Апр-2016 01:09

[Цитировать]

Любовь на линии фронта / The Poet
Страна: Канада
Жанр: драма
Годы выпуска: 2007
Продолжительность: 01:36:13
Перевод: Профессиональный (многоголосый закадровый) Лицензия
Субтитры: английские
Оригинальная аудиодорожка: английский
Режиссер: Дэмиан Ли / Damian Lee
В ролях: Джонатан Скарф, Захари Беннетт, Дэрил Ханна, Рой Шайдер, Ким Коутс, Колм Фиор, Лара Даанс, Нина Добрев
Описание: Оскар и Речел встретились в то время, когда Второй Мировая война поделила мир пополам. Он — разочаровавшийся в войне немецкий солдат, она — дочь раввина, но это не помешало им полюбить друг друга.
Отец Оскара, будучи армейским генералом, настаивает, чтобы сын воевал до победного конца, и тот возвращается на фронт. Смирившись с мыслью о том, что она уже никогда уже не увидит возлюбленного, Речел выходит замуж за преподобного Бернара, с которым должна была сочетаться браком, и они вместе скрываются от нацистов. Все попытки влюбленных найти друг друга, ведут к русской линии фронта…
Смогут ли они встретиться? Или война так и не даст им ни малейшего шанса быть вместе?

Доп. информация:
Качество видео: BDRip | irrlicht/1080p BD-Remux
Формат видео: AVI
Видео: 704x400 (1.76:1), 23.976 fps, XviD build 73 ~2393 kbps avg, 0.35 bit/pixel
Аудио 1: 48 kHz, AC3 Dolby Digital, 3/2 (L,C,R,l,r) + LFE ch, ~384 kbps MVO
Аудио 2: 48 kHz, AC3 Dolby Digital, 3/2 (L,C,R,l,r) + LFE ch, ~448 kbps оригинал
Формат субтитров: softsub (SRT)

MediaInfo

General
Complete name : C:\The.Poet.2007.BDRip.MVO.Eng_by_LBS.avi
Format : AVI
Format/Info : Audio Video Interleave
Format profile : OpenDML
File size : 2.18 GiB
Duration : 1h 36mn
Overall bit rate : 3 243 Kbps
Director : Last Boy Scout
Writing application : VirtualDubMod 1.5.10.3 | www.virtualdub-fr.org || (build 2550/release)
Copyright : torrentfilm.net 08.04.2016
Comment : BDRip MVO (R5) + Original (Eng)
Video
ID : 0
Format : MPEG-4 Visual
Format profile : Advanced Simple@L5
Format settings, BVOP : 1
Format settings, QPel : No
Format settings, GMC : No warppoints
Format settings, Matrix : Custom
Codec ID : XVID
Codec ID/Hint : XviD
Duration : 1h 36mn
Bit rate : 2 393 Kbps
Width : 704 pixels
Height : 400 pixels
Display aspect ratio : 16:9
Frame rate : 23.976 fps
Color space : YUV
Chroma subsampling : 4:2:0
Bit depth : 8 bits
Scan type : Progressive
Compression mode : Lossy
Bits/(Pixel*Frame) : 0.354
Stream size : 1.61 GiB (74%)
Writing library : XviD 73
Audio #1
ID : 1
Format : AC-3
Format/Info : Audio Coding 3
Mode extension : CM (complete main)
Format settings, Endianness : Big
Codec ID : 2000
Duration : 1h 36mn
Bit rate mode : Constant
Bit rate : 384 Kbps
Channel(s) : 6 channels
Channel positions : Front: L C R, Side: L R, LFE
Sampling rate : 48.0 KHz
Bit depth : 16 bits
Compression mode : Lossy
Stream size : 264 MiB (12%)
Alignment : Split accross interleaves
Interleave, duration : 42 ms (1.00 video frame)
Interleave, preload duration : 500 ms
Audio #2
ID : 2
Format : AC-3
Format/Info : Audio Coding 3
Mode extension : CM (complete main)
Format settings, Endianness : Big
Codec ID : 2000
Duration : 1h 36mn
Bit rate mode : Constant
Bit rate : 448 Kbps
Channel(s) : 6 channels
Channel positions : Front: L C R, Side: L R, LFE
Sampling rate : 48.0 KHz
Bit depth : 16 bits
Compression mode : Lossy
Stream size : 308 MiB (14%)
Alignment : Split accross interleaves
Interleave, duration : 42 ms (1.00 video frame)
Interleave, preload duration : 500 ms

Скриншоты

-
[Профиль] [ЛС]
Показать сообщения:    

Текущее время: Сегодня 18:12

Часовой пояс: GMT



Вы не можете начинать темы
Вы не можете отвечать на сообщения
Вы не можете редактировать свои сообщения
Вы не можете удалять свои сообщения
Вы не можете голосовать в опросах
Вы не можете прикреплять файлы к сообщениям
Вы не можете скачивать файлы