Любовь на линии фронта / The Poet (Дамиан Ли / Damian Lee) [2007, Канада, Драма, военный, BDRip] MVO (R5)

 
Автор Сообщение

TorrentFilm ®

Пол:

Стаж: 2 года

Сообщений: 7741



Награды: Нет

Торрент-статистика

Создавать темы 06-Апр-2016 00:09

[Цитировать]

Любовь на линии фронта / The Poet
Страна: Канада
Жанр: Драма, военный
Год выпуска: 2007
Продолжительность: 01:36:30
Перевод: Профессиональный (многоголосый закадровый) R5
Cубтитры: нет
Оригинальная аудиодорожка: нет-Режиссер: Дамиан Ли / Damian Lee-В ролях: Джонатан Скарф, Нина Добрев, Захари Беннетт, Ким Коутс, Дэрил Ханна, Колм Фиор, Мак Файф, Себастьян Пижотт, Зион Ли, Лара Даанс-Описание: Оскар и Речел встретились в то время, когда Второй Мировая война поделила мир пополам. Он - разочаровавшийся в войне немецкий солдат, она - дочь раввина, но это не помешало им полюбить друг друга.
Отец Оскара, будучи армейским генералом, настаивает, чтобы сын воевал до победного конца, и тот возвращается на фронт. Смирившись с мыслью о том, что она уже никогда уже не увидит возлюбленного, Речел выходит замуж за преподобного Бернара, с которым должна была сочетаться браком, и они вместе скрываются от нацистов. Все попытки влюблённых найти друг друга ведут к советской линии фронта...
Смогут ли они встретиться? Или война так и не даст им ни малейшего шанса быть вместе?-Качество видео: BDRip | The poet (2007) BD-Remux 1080p HDClub
Формат видео: AVI
Видео: 704x400 (1.76:1), 23.976 fps, XviD build 65 ~1781 kbps avg, 0.26 bit/pixel
Аудио: 48 kHz, AC3 Dolby Digital, 3/2 (L,C,R,l,r) + LFE ch, ~384 kbps-Скачать сэмпл-MediaInfo
Format                      : AVI
Format/Info                 : Audio Video Interleave
File size                   : 1.47 GiB
Duration                    : 1h 36mn
Overall bit rate            : 2 175 Kbps
Writing application         : VirtualDubMod 1.5.10.3 | www.virtualdub-fr.org || (build 2550/release)
Writing library             : VirtualDubMod build 2550/release
Video
ID                          : 0
Format                      : MPEG-4 Visual
Format profile              : Advanced Simple@L5
Format settings, BVOP       : 1
Format settings, QPel       : No
Format settings, GMC        : No warppoints
Format settings, Matrix     : Custom
Codec ID                    : XVID
Codec ID/Hint               : XviD
Duration                    : 1h 36mn
Bit rate                    : 1 782 Kbps
Width                       : 704 pixels
Height                      : 400 pixels
Display aspect ratio        : 16:9
Frame rate                  : 23.976 (23976/1000) fps
Color space                 : YUV
Chroma subsampling          : 4:2:0
Bit depth                   : 8 bits
Scan type                   : Progressive
Compression mode            : Lossy
Bits/(Pixel*Frame)          : 0.264
Stream size                 : 1.20 GiB (82%)
Writing library             : XviD 65
Audio
ID                          : 1
Format                      : AC-3
Format/Info                 : Audio Coding 3
Mode extension              : CM (complete main)
Format settings, Endianness : Big
Codec ID                    : 2000
Duration                    : 1h 36mn
Bit rate mode               : Constant
Bit rate                    : 384 Kbps
Channel(s)                  : 6 channels
Channel positions           : Front: L C R, Side: L R, LFE
Sampling rate               : 48.0 KHz
Frame rate                  : 31.250 fps (1536 spf)
Compression mode            : Lossy
Stream size                 : 265 MiB (18%)
Alignment                   : Split accross interleaves
Interleave, duration        : 42 ms (1.00 video frame)
Interleave, preload duratio : 500 ms

Скриншоты

[Профиль] [ЛС]
Показать сообщения:    

Текущее время: Сегодня 10:54

Часовой пояс: GMT



Вы не можете начинать темы
Вы не можете отвечать на сообщения
Вы не можете редактировать свои сообщения
Вы не можете удалять свои сообщения
Вы не можете голосовать в опросах
Вы не можете прикреплять файлы к сообщениям
Вы не можете скачивать файлы