Любовь навзрыд / Zai shi jie zhong xin hu huan ai (2016) WEBRip 1080p | L2

 
Автор Сообщение

BOSS ®

Пол:

Стаж: 3 года 2 месяца

Сообщений: 8560

Откуда: ODESSA



Награды: 22 (Подробнее)

Mega Releaser 1 (Количество: 1) Top Releaser 3 (Количество: 1) Top Keeper 2 (Количество: 1)
Торрент-статистика

Создавать темы 30-Июл-2017 17:48

[Цитировать]

Информация о фильме
Название: Любовь навзрыд
Оригинальное название: Zai shi jie zhong xin hu huan ai
Год выхода: 2016
Жанр: драма, мелодрама
Режиссер: Квак Чжэ Ён
В ролях: Оу Хао, Чжан Хуэй Вэнь, Ян Цзы, Гао Тай Юй, Вэнь Синь
О фильме:
Есть такая любовь, которую невозможно забыть. Пройдут годы, множество раз сменят друг друга сезоны, но в сердце навсегда останется это светлое чувство. Можно любить так сильно, что однажды в самом центре мира море расступится, чтобы влюбленные могли встретиться. История о вечной первой любви и верности, о дружбе и преданности, о том, как важен каждый прожитый день. По мотивам новеллы Катаяма Кёити "Влюбленный Сократ".

Страна: Китай
Продолжительность: 01:35:52
Перевод: Любительский, двухголосый, закадровый (РГ "XDUB DORAMA", перевод на русский: FSG #404, закадровый текст читали: Koldun02 & Leteriya, тайминг и работа со звуком: Leteriya)
Файл
Кодек: V_MPEG4/ISO/AVC
Качество: WEBRip 1080p
Видео: 1920x800, 24.000 FPS, 2996 kb/s
Звук: mp3, 48.0 KHz, 2ch, 192 kb/s
Субтитры: английские, китайские (хардсаб)

Скриншоты

MediaInfo

General
Unique ID : 245116561587508384582731558352777227163 (0xB867BB8A898F1E869C3996105719AB9B)
Complete name : Crying.Out.in.Love.2016.L2.1080p.WEBRip.mkv
Format : Matroska
Format version : Version 4 / Version 2
File size : 2.14 GiB
Duration : 1 h 35 min
Overall bit rate : 3 190 kb/s
Encoded date : UTC 2017-07-28 10:46:53
Writing application : mkvmerge v7.8.0 ('River Man') 64bit built on Mar 27 2015 16:31:37
Writing library : libebml v1.3.1 + libmatroska v1.4.2
Video
ID : 1
Format : AVC
Format/Info : Advanced Video Codec
Format profile : High@L4
Format settings, CABAC : Yes
Format settings, ReFrames : 4 frames
Codec ID : V_MPEG4/ISO/AVC
Duration : 1 h 35 min
Bit rate : 2 996 kb/s
Width : 1 920 pixels
Height : 800 pixels
Display aspect ratio : 2.40:1
Frame rate mode : Constant
Frame rate : 24.000 FPS
Color space : YUV
Chroma subsampling : 4:2:0
Bit depth : 8 bits
Scan type : Progressive
Bits/(Pixel*Frame) : 0.081
Stream size : 2.01 GiB (94%)
Writing library : Provided by www.letv.com :: H.264/MPEG-4 AVC codec -V 1.6.09-20151125
Default : Yes
Forced : No
Audio
ID : 2
Format : MPEG Audio
Format version : Version 1
Format profile : Layer 3
Mode : Joint stereo
Mode extension : MS Stereo
Codec ID : A_MPEG/L3
Codec ID/Hint : MP3
Duration : 1 h 35 min
Bit rate mode : Constant
Bit rate : 192 kb/s
Channel(s) : 2 channels
Sampling rate : 48.0 kHz
Frame rate : 41.667 FPS (1152 spf)
Compression mode : Lossy
Delay relative to video : -46 ms
Stream size : 132 MiB (6%)
Default : Yes
Forced : No
Релиз от:
[Профиль] [ЛС]
Показать сообщения:    

Текущее время: Сегодня 13:08

Часовой пояс: GMT



Вы не можете начинать темы
Вы не можете отвечать на сообщения
Вы не можете редактировать свои сообщения
Вы не можете удалять свои сообщения
Вы не можете голосовать в опросах
Вы не можете прикреплять файлы к сообщениям
Вы не можете скачивать файлы