Любовь-морковь 2 (2008) Blu-Ray Remux 1080p | Лицензия

 
Автор Сообщение

sergej644 ®

Пол:

Стаж: 4 года 11 месяцев

Сообщений: 6042

Откуда: Soviet Union



Награды: Нет

Торрент-статистика

Создавать темы 08-Ноя-2014 09:27

[Цитировать]

Информация о фильме
Оригинальное название: Любовь-морковь 2
Год выхода: 2008
Жанр: Комедия, мелодрама, фэнтези
Режиссёр: Максим Пежемский
В ролях: Кристина Орбакайте, Гоша Куценко, Денис Парамонов, Алина Булынко, Андрей Ургант, Лидия Вележева, Кирилл Плетнёв, Ольга Орлова, Дарья Дроздовская, Павел Меленчук, Леонид Тимцуник, Анастасия Федоркова, Прохор Дубравин, Никита Добин, Маргарита Силкина, Даниил Сонин, Сергей Тезов, Андрей Григорьев-Апполонов, Зураб Гурцкаия, Никас Сафронов, Галина Сазонова, Александр Коржов, Валерий Громовиков, Владимир Чуприков, Валентина Абрамова, Виктория Агапова, Алексей Агрызков, Анна Ковалева, Юрий Думчев, Алла Юганова, Александр Армер, Ефим Банчик, Олег Билик, Полина Борунова, Денис Гнедовец, Максим Громов, Виктор Довженко, Ксения Иванова, Артак Казарян, Александр Кудринский
О фильме:
Десять лет назад супруги Голубевы проверили свои чувства на прочность, поменявшись телами. Теперь они — папа Андрей и мама Марина. В их семье растут близнецы, Глеб и Светочка. Жизнь супругов налажена, карьера головокружительна, а день расписан по часам. Они уже плохо помнят, что дети больше любят живых собак, чем искусственных, и что друзья родителей — не лучшая компания в день рожденья. Они забыли, что любовь и внимание дороже денег. Чтобы вернуть все на свои места, нужно опять поменять всех местами — решит доктор Коган и навестит своих старых приятелей Голубевых.

Страна: Россия
Студия: Интерфест, Реал-Дакота
Продолжительность: 01:38:51
Перевод: Не требуется
Файл
Кодек: MPEG-4 AVC
Качество: Blu-Ray Remux (1080p) [Исходник: Blu-ray RUS 1080p AVC DTS-HD 5.1]
Видео: MPEG-4 AVC, 21996 Kбит/с, 1920x1080 (16:9), 23.976 кадр/с
Аудио #1: Русский, Dolby АС3, 48000 Гц, 640 Кбит/с, 6 каналов (5.1)
Аудио #2: Русский, DTS-HD MA, 48000 Гц, 1950 Кбит/с, 6 каналов (5.1)
Субтитры: Русские (полные, SRT)
Навигация по главам: Есть (Сохранены оригинальные чаптеры как на Blu-ray)

Знаете ли вы, что...

• Сцена когда Андрей (Гоша Куценко) приходит к Елизавете Федоровне за бриллиантом с шампанским и цветами, на заднем плане по телевизору идет фильм «Мама не горюй».
• Стихотворение, которое читает Марина Голубева в теле своей дочери, это «Все мы бражники здесь, блудницы» Анны Ахматовой.

MediaInfo

General
Unique ID : 243201725279184511404344362359282335307 (0xB6F6F2D27B14FFE9BB96E9D71E39FE4B)
Complete name : Lyubov'.morkov'.2.2008.BDRemux.1080p.mkv
Format : Matroska
File size : 17.0 GiB
Duration : 1h 38mn
Overall bit rate : 24.6 Mbps
Movie name : Любовь-морковь 2 (2008) Blu-ray Remux (1080p)
Encoded date : UTC 2014-11-07 19:22:37
Writing application : mkvmerge v6.1.0 ('Old Devil') built on Mar 4 2013 09:10:42
Writing library : libebml v1.3.0 + libmatroska v1.4.0
Video
ID : 1
Format : AVC
Format/Info : Advanced Video Codec
Format profile : High@L4.1
Format settings, CABAC : Yes
Format settings, ReFrames : 4 frames
Codec ID : V_MPEG4/ISO/AVC
Duration : 1h 38mn
Bit rate mode : Variable
Bit rate : 22.3 Mbps
Maximum bit rate : 29.0 Mbps
Width : 1 920 pixels
Height : 1 080 pixels
Display aspect ratio : 16:9
Frame rate : 23.976 fps
Standard : NTSC
Color space : YUV
Chroma subsampling : 4:2:0
Bit depth : 8 bits
Scan type : Progressive
Bits/(Pixel*Frame) : 0.448
Stream size : 15.4 GiB (91%)
Title : Любовь-морковь 2 (2008)
Language : Russian
Color primaries : BT.709-5, BT.1361, IEC 61966-2-4, SMPTE RP177
Transfer characteristics : BT.709-5, BT.1361
Matrix coefficients : BT.709-5, BT.1361, IEC 61966-2-4 709, SMPTE RP177
Audio #1
ID : 2
Format : AC-3
Format/Info : Audio Coding 3
Mode extension : CM (complete main)
Codec ID : A_AC3
Duration : 1h 38mn
Bit rate mode : Constant
Bit rate : 640 Kbps
Channel(s) : 6 channels
Channel positions : Front: L C R, Side: L R, LFE
Sampling rate : 48.0 KHz
Bit depth : 16 bits
Compression mode : Lossy
Stream size : 453 MiB (3%)
Title : DD 5.1 [Original]
Language : Russian
Audio #2
ID : 3
Format : DTS
Format/Info : Digital Theater Systems
Format profile : MA / Core
Codec ID : A_DTS
Duration : 1h 38mn
Bit rate mode : Variable
Bit rate : 1 203 Kbps / 1 152 Kbps
Channel(s) : 6 channels
Channel positions : Front: L C R, Side: L R, LFE
Sampling rate : 48.0 KHz
Bit depth : 16 bits
Compression mode : Lossless / Lossy
Title : DTS-HD MA 5.1 [Original]
Language : Russian
Text
ID : 4
Format : UTF-8
Codec ID : S_TEXT/UTF8
Codec ID/Info : UTF-8 Plain Text
Title : Full
Language : Russian
Menu
00:00:00.000 : :Chapter 01
00:07:14.434 : :Chapter 02
00:14:53.893 : :Chapter 03
00:20:21.220 : :Chapter 04
00:31:13.872 : :Chapter 05
00:40:03.401 : :Chapter 06
00:47:45.863 : :Chapter 07
00:55:52.349 : :Chapter 08
01:04:39.667 : :Chapter 09
01:10:25.221 : :Chapter 10
01:21:10.866 : :Chapter 11
01:29:02.337 : :Chapter 12
01:38:36.744 : :Chapter 13

Скриншоты

Автор ремукса - ivandubskoj
[Профиль] [ЛС]
Показать сообщения:    

Текущее время: Сегодня 08:58

Часовой пояс: GMT



Вы не можете начинать темы
Вы не можете отвечать на сообщения
Вы не можете редактировать свои сообщения
Вы не можете удалять свои сообщения
Вы не можете голосовать в опросах
Вы не можете прикреплять файлы к сообщениям
Вы не можете скачивать файлы