Любовь и смерть картошки обыкновенной (Наталья Марченкова) [1990, Комбинированный мультфильм, SATRip]

 
Автор Сообщение

TorrentFilm ®

Пол:

Стаж: 2 года

Сообщений: 7741



Награды: Нет

Торрент-статистика

Создавать темы 11-Сен-2015 00:06

[Цитировать]

Любовь и смерть картошки обыкновенной
Страна: СССР
Жанр: Комбинированный мультфильм
Продолжительность: 00:08:43
Год выпуска: 1990
Русские субтитры: нет
Режиссёр: Наталья Марченкова
Описание: Фильм-опера, слегка «эротическая» история, которая является своеобразной пародией на мыльные оперы, которых так много на телевидение. Интриги, трагедии, любовь, измены и многое другое ждет зрителей в этом мультике!
Доп. информация: Выпущено:«Укранимафильм»
Раздача группы:
РИП by Itartass
Качество: SATRip
Формат: AVI
Видео: 704x528 (1.33:1), 25 fps, XviD build 50 ~2221 kbps avg, 0.24 bit/pixel
Аудио: 48 kHz, MPEG Layer 3, 2 ch, ~192.00 kbps avg
Субтитры: нет

Подробные технические данные

Format : AVIFormat/Info : Audio Video InterleaveFile size : 151 MiBDuration : 8mn 43sOverall bit rate : 2 424 KbpsMovie name : Любовь и смерть картошки обыкновенной(SATRip)Writing application : VirtualDubMod 1.5.10.2 (build 2540/release) VirtualDubMod build 2540/releaseOriginal source form/Name : мультфильмCopyright : Itar-Tass collection
VideoID : 0Format : MPEG-4 VisualFormat profile : Advanced Simple@L5Format settings, BVOP : 1Format settings, QPel : NoFormat settings, GMC : No warppointsFormat settings, Matrix : Default (MPEG)Codec ID : XVIDCodec ID/Hint : XviDDuration : 8mn 43sBit rate : 2 222 KbpsWidth : 704 pixelsHeight : 528 pixelsDisplay aspect ratio : 4:3Frame rate : 25.000 fpsColor space : YUVChroma subsampling : 4:2:0Bit depth : 8 bitsScan type : ProgressiveCompression mode : LossyBits/(Pixel*Frame) : 0.239Stream size : 139 MiB (92%)Writing library : XviD 1.2.1 (UTC 2008-12-04)
AudioID : 1Format : MPEG AudioFormat version : Version 1Format profile : Layer 3Codec ID : 55Codec ID/Hint : MP3Duration : 8mn 43sBit rate mode : ConstantBit rate : 192 KbpsChannel(s) : 2 channelsSampling rate : 48.0 KHzCompression mode : LossyStream size : 12.0 MiB (8%)Alignment : Aligned on interleavesInterleave, duration : 40 ms (1.00 video frame)Interleave, preload duration : 504 msWriting library : LAME3.98rEncoding settings : -m s -V 4 -q 0 -lowpass 18.6 -b 192

Скриншоты

[Профиль] [ЛС]
Показать сообщения:    

Текущее время: Сегодня 13:05

Часовой пояс: GMT



Вы не можете начинать темы
Вы не можете отвечать на сообщения
Вы не можете редактировать свои сообщения
Вы не можете удалять свои сообщения
Вы не можете голосовать в опросах
Вы не можете прикреплять файлы к сообщениям
Вы не можете скачивать файлы