Любовь и прочие неприятности / Failure to Launch (2006) BDRip 720p от NNNB | D, P, P2, A

 
Автор Сообщение

Russian Mafia ®

Пол:

Стаж: 1 год 8 месяцев

Сообщений: 4253



Награды: 10 (Подробнее)

Mega Seeder 1 (Количество: 1) Top Releaser 5 (Количество: 1) За внесенный вклад в развитие сайта (Количество: 1)
Торрент-статистика

Создавать темы 29-Мар-2016 13:58

[Цитировать]

Любовь и прочие неприятности / Failure to Launch
«Некоторым мужчинам просто нужен небольшой стимул»
Русское название: Любовь и прочие неприятности
Оригинальное название: Failure to Launch
Год выпуска: 2006
Жанр: мелодрама, комедия
Выпущено: США
Режиссер: Том Дей
В ролях: Мэттью МакКонахи , Сара Джессика Паркер , Зои Дешанель , Джастин Барта , Брэдли Купер , Терри Брэдшоу , Кэти Бейтс , Стивен Тоболовски , Питер Джекобсон , Джесика Стоун , Тайрел Джексон Уильямс , Кэтрин Уинник
Перевод: Дублированный, Профессиональный многоголосый, Профессиональный двухголосый, Авторский одноголосый

Сюжет фильма:
Несмотря на свои 30 с лишним лет, красавчик Трипп никак не решается покинуть отчий дом и обзавестись собственным семейным гнездышком. На это у него всякий раз находятся веские, по его мнению, причины.
Но однажды родители Триппа сами взялись за устройство его судьбы. Они наняли красивую и талантливую девушку, надеясь, что их сын, влюбившись в нее, наконец оставит их дом...

Качество: BDRip 720p
Формат: AVC (библиотека кодирования x.264)
Контейнер (Расширение): MKV
Видео: 1280x546, 7910 Кбит/сек, 23,976 кадр/сек, 0,472 Бит/[Пиксели*Кадры]
Аудио №1: русский / AC3 / 5.1 / 48 kHz / 384 kbps / 16 bit |Дублированный|
Аудио №2: русский / AC3 / 5.1 / 48 kHz / 640 kbps / 16 bit |Профессиональный многоголосый|
Аудио №3: русский / AC3 / 2.0 / 48 kHz / 192 kbps / 16 bit |Профессиональный двухголосый (СТС)|
Аудио №4: русский / AC3 / 5.1 / 48 kHz / 448 kbps / 16 bit |Авторский одноголосый, Немахов|
Аудио №5: английский / AC3 / 5.1 / 48 kHz / 640 kbps / 16 bit
Субтитры: английские
Навигация по главам(Чаптеры): есть
Продолжительность: 01:36:20Автор рипа: Сообщество:

MediaInfo

Format : Matroska
Format version : Version 2
File size : 7.01 GiB
Duration : 1h 36mn
Overall bit rate : 10.4 Mbps
Movie name : Ljubov' i prochie neprijatnosti.(2006).BDRip.720p.[denis100]
Encoded date : UTC 2016-03-29 12:40:44
Writing application : mkvmerge v5.8.0 ('No Sleep / Pillow') built on Sep 2 2012 15:37:04
Writing library : libebml v1.2.3 + libmatroska v1.3.0
Video
ID : 1
Format : AVC
Format/Info : Advanced Video Codec
Format profile : High@L4.1
Format settings, CABAC : Yes
Format settings, ReFrames : 11 frames
Codec ID : V_MPEG4/ISO/AVC
Duration : 1h 36mn
Bit rate : 7 910 Kbps
Width : 1 280 pixels
Height : 546 pixels
Display aspect ratio : 2.35:1
Frame rate : 23.976 fps
Color space : YUV
Chroma subsampling : 4:2:0
Bit depth : 8 bits
Scan type : Progressive
Bits/(Pixel*Frame) : 0.472
Stream size : 5.32 GiB (76%)
Title : Ljubov' i prochie neprijatnosti.(2006).BDRip.720p.[denis100]
Writing library : x264 core 148 r2665 a01e339
Encoding settings : cabac=1 / ref=11 / deblock=1:-3:-3 / analyse=0x3:0x133 / me=umh / subme=11 / psy=1 / psy_rd=1.00:0.10 / mixed_ref=1 / me_range=48 / chroma_me=1 / trellis=2 / 8x8dct=1 / cqm=0 / deadzone=21,11 / fast_pskip=0 / chroma_qp_offset=-3 / threads=6 / lookahead_threads=1 / sliced_threads=0 / nr=0 / decimate=1 / interlaced=0 / bluray_compat=0 / constrained_intra=0 / bframes=12 / b_pyramid=2 / b_adapt=2 / b_bias=0 / direct=3 / weightb=1 / open_gop=0 / weightp=2 / keyint=240 / keyint_min=23 / scenecut=40 / intra_refresh=0 / rc=crf / mbtree=0 / crf=16.9 / qcomp=0.60 / qpmin=0 / qpmax=69 / qpstep=4 / ip_ratio=1.40 / pb_ratio=1.30 / aq=2:0.90
Language : English
Default : Yes
Forced : No
Audio #1
ID : 2
Format : AC-3
Format/Info : Audio Coding 3
Mode extension : CM (complete main)
Codec ID : A_AC3
Duration : 1h 36mn
Bit rate mode : Constant
Bit rate : 384 Kbps
Channel(s) : 6 channels
Channel positions : Front: L C R, Side: L R, LFE
Sampling rate : 48.0 KHz
Bit depth : 16 bits
Compression mode : Lossy
Stream size : 265 MiB (4%)
Title : Дубляж
Language : Russian
Default : Yes
Forced : No
Audio #2
ID : 3
Format : AC-3
Format/Info : Audio Coding 3
Mode extension : CM (complete main)
Codec ID : A_AC3
Duration : 1h 36mn
Bit rate mode : Constant
Bit rate : 640 Kbps
Channel(s) : 6 channels
Channel positions : Front: L C R, Side: L R, LFE
Sampling rate : 48.0 KHz
Bit depth : 16 bits
Compression mode : Lossy
Stream size : 441 MiB (6%)
Title : MVO
Language : Russian
Default : No
Forced : No
Audio #3
ID : 4
Format : AC-3
Format/Info : Audio Coding 3
Mode extension : CM (complete main)
Codec ID : A_AC3
Duration : 1h 36mn
Bit rate mode : Constant
Bit rate : 192 Kbps
Channel(s) : 2 channels
Channel positions : Front: L R
Sampling rate : 48.0 KHz
Bit depth : 16 bits
Compression mode : Lossy
Stream size : 132 MiB (2%)
Title : DVO, СТС
Language : Russian
Default : No
Forced : No
Audio #4
ID : 5
Format : AC-3
Format/Info : Audio Coding 3
Mode extension : CM (complete main)
Codec ID : A_AC3
Duration : 1h 36mn
Bit rate mode : Constant
Bit rate : 448 Kbps
Channel(s) : 6 channels
Channel positions : Front: L C R, Side: L R, LFE
Sampling rate : 48.0 KHz
Bit depth : 16 bits
Compression mode : Lossy
Stream size : 309 MiB (4%)
Title : AVO, Немахов
Language : Russian
Default : No
Forced : No
Audio #5
ID : 6
Format : AC-3
Format/Info : Audio Coding 3
Mode extension : CM (complete main)
Codec ID : A_AC3
Duration : 1h 36mn
Bit rate mode : Constant
Bit rate : 640 Kbps
Channel(s) : 6 channels
Channel positions : Front: L C R, Side: L R, LFE
Sampling rate : 48.0 KHz
Bit depth : 16 bits
Compression mode : Lossy
Stream size : 441 MiB (6%)
Language : English
Default : No
Forced : No
Text
ID : 7
Format : UTF-8
Codec ID : S_TEXT/UTF8
Codec ID/Info : UTF-8 Plain Text
Language : English
Default : No
Forced : No
Menu
00:00:00.000 : en:00:00:00.000
00:07:20.273 : en:00:07:20.273
00:14:26.866 : en:00:14:26.866
00:20:19.093 : en:00:20:19.093
00:26:22.581 : en:00:26:22.581
00:35:20.910 : en:00:35:20.910
00:43:00.411 : en:00:43:00.411
00:51:28.335 : en:00:51:28.335
00:59:26.104 : en:00:59:26.104
01:07:56.739 : en:01:07:56.739
01:17:31.772 : en:01:17:31.772
01:22:37.703 : en:01:22:37.703
01:28:14.289 : en:01:28:14.289

x264

x264 [info]: frame I:1631 Avg QP:17.05 size:134804
x264 [info]: frame P:26525 Avg QP:18.42 size: 70916
x264 [info]: frame B:110445 Avg QP:20.47 size: 34073
[Профиль] [ЛС]
Показать сообщения:    

Текущее время: Сегодня 01:07

Часовой пояс: GMT



Вы не можете начинать темы
Вы не можете отвечать на сообщения
Вы не можете редактировать свои сообщения
Вы не можете удалять свои сообщения
Вы не можете голосовать в опросах
Вы не можете прикреплять файлы к сообщениям
Вы не можете скачивать файлы