Любовь и дружба / Love & Friendship (2016) BDRip-AVC | iTunes

 
Автор Сообщение

Russian Mafia ®

Пол:

Стаж: 1 год 8 месяцев

Сообщений: 4257



Награды: 10 (Подробнее)

Top Releaser 4 (Количество: 1) Mega Seeder 1 (Количество: 1) Top Releaser 2 (Количество: 1)
Торрент-статистика

Создавать темы 15-Сен-2016 13:25

[Цитировать]

Информация о фильме
Название: Любовь и дружба
Оригинальное название: Love & Friendship
Год выпуска: 2016
Страна: Ирландия, Нидерланды, Франция, США, Великобритания
Жанр: драма, мелодрама, комедия-Перевод: Дубляж - [iTunes]
Субтитры: английские (full), английские (SDH)
Продолжительность: 01:33:18-Режиссер: Уит Стиллман
В ролях: Кейт Бекинсейл (Lady Susan Vernon), Хлоя Севиньи (Alicia Johnson), Завьер Сэмюэл (Reginald DeCourcy), Морфидд Кларк (Frederica Vernon), Эмма Гринвелл (Catherine DeCourcy Vernon), Джастин Эдвардс (Charles Vernon), Джеймс Флит (Sir Reginald DeCourcy), Дженн Мюррэй (Lady Lucy Manwaring), Стивен Фрай (Mr. Johnson), Том Беннетт (Sir James Martin), Лохлэйнн О’Меарайн (Lord Manwaring), Софи Радермахер (Miss Maria Manwaring)-Описание:
Прекрасная молодая вдова леди Сьюзан приезжает в имение семьи покойного мужа переждать, пока в высшем обществе перестанут судачить о ее похождениях, и придумать, как поправить свое финансовое положение. Не теряя времени даром, она решает подыскать богатого мужа себе и своей юной дочери. В ход идут не только красота и обаяние, но и острый насмешливый ум и невероятный талант плести интриги.-Рейтинг:

MPAA: PG - Рекомендуется присутствие родителей-Качество: BDRip-AVC
Формат: MKV
Видео: AVC, 1024x552 (1.85:1), 2692 kbps, 23,976 fps, 0,199 bpp
Аудио №1: русский / AC3 / 5.1 / 48 kHz / 384 kbps
Аудио №2: английский / AC3 / 5.1 / 48 kHz / 448 kbps
Навигация по главам: есть-Релиз от: -

ОтчетМедиаИнфо

General
Unique ID : 171019698024692822824131338443305794793 (0x80A9321CB5CB39EB9DEE51675E383CE9)
Complete name : D:downloadLove.and.Friendship.2016.BDRip-AVC by schultz R.G.Resident.mkv
Format : Matroska
Format version : Version 4 / Version 2
File size : 2.30 GiB
Duration : 1 h 33 min
Overall bit rate : 3 526 kb/s
Encoded date : UTC 2016-09-15 12:33:25
Writing application : mkvmerge v8.9.0 ('Father Daughter') 64bit
Writing library : libebml v1.3.3 + libmatroska v1.4.4
Video
ID : 1
Format : AVC
Format/Info : Advanced Video Codec
Format profile : High@L4.1
Format settings, CABAC : Yes
Format settings, ReFrames : 12 frames
Codec ID : V_MPEG4/ISO/AVC
Duration : 1 h 33 min
Bit rate : 2 692 kb/s
Width : 1 024 pixels
Height : 552 pixels
Display aspect ratio : 1.85:1
Frame rate mode : Constant
Frame rate : 23.976 (23976/1000) FPS
Color space : YUV
Chroma subsampling : 4:2:0
Bit depth : 8 bits
Scan type : Progressive
Bits/(Pixel*Frame) : 0.199
Stream size : 1.75 GiB (76%)
Writing library : x264 core 146 r2538 121396c
Encoding settings : cabac=1 / ref=12 / deblock=1:-3:-3 / analyse=0x3:0x113 / me=umh / subme=11 / psy=1 / psy_rd=1.00:0.00 / mixed_ref=1 / me_range=48 / chroma_me=1 / trellis=2 / 8x8dct=1 / cqm=0 / deadzone=21,11 / fast_pskip=0 / chroma_qp_offset=-2 / threads=12 / lookahead_threads=3 / sliced_threads=0 / nr=0 / decimate=0 / interlaced=0 / bluray_compat=0 / constrained_intra=0 / bframes=11 / b_pyramid=2 / b_adapt=2 / b_bias=0 / direct=3 / weightb=1 / open_gop=0 / weightp=2 / keyint=240 / keyint_min=23 / scenecut=40 / intra_refresh=0 / rc_lookahead=40 / rc=2pass / mbtree=1 / bitrate=2692 / ratetol=1.0 / qcomp=0.60 / qpmin=0 / qpmax=69 / qpstep=4 / cplxblur=20.0 / qblur=0.5 / vbv_maxrate=50000 / vbv_bufsize=62500 / nal_hrd=none / filler=0 / ip_ratio=1.40 / aq=1:1.00
Language : English
Default : Yes
Forced : No
Audio #1
ID : 2
Format : AC-3
Format/Info : Audio Coding 3
Mode extension : CM (complete main)
Format settings, Endianness : Big
Codec ID : A_AC3
Duration : 1 h 33 min
Bit rate mode : Constant
Bit rate : 384 kb/s
Channel(s) : 6 channels
Channel positions : Front: L C R, Side: L R, LFE
Sampling rate : 48.0 kHz
Frame rate : 31.250 FPS (1536 spf)
Compression mode : Lossy
Stream size : 256 MiB (11%)
Language : Russian
Default : Yes
Forced : No
Audio #2
ID : 3
Format : AC-3
Format/Info : Audio Coding 3
Mode extension : CM (complete main)
Format settings, Endianness : Big
Codec ID : A_AC3
Duration : 1 h 33 min
Bit rate mode : Constant
Bit rate : 448 kb/s
Channel(s) : 6 channels
Channel positions : Front: L C R, Side: L R, LFE
Sampling rate : 48.0 kHz
Frame rate : 31.250 FPS (1536 spf)
Compression mode : Lossy
Stream size : 299 MiB (13%)
Language : English
Default : No
Forced : No
Text #1
ID : 4
Format : UTF-8
Codec ID : S_TEXT/UTF8
Codec ID/Info : UTF-8 Plain Text
Duration : 1 h 29 min
Bit rate : 91 b/s
Count of elements : 1470
Stream size : 59.8 KiB (0%)
Title : full
Language : English
Default : No
Forced : No
Text #2
ID : 5
Format : UTF-8
Codec ID : S_TEXT/UTF8
Codec ID/Info : UTF-8 Plain Text
Duration : 1 h 29 min
Bit rate : 95 b/s
Count of elements : 1549
Stream size : 62.6 KiB (0%)
Title : SDH
Language : English
Default : No
Forced : No
Menu
00:00:00.000 : en:Chapter 1
00:06:18.962 : en:Chapter 2
00:14:33.581 : en:Chapter 3
00:22:33.686 : en:Chapter 4
00:29:48.620 : en:Chapter 5
00:34:52.382 : en:Chapter 6
00:41:29.237 : en:Chapter 7
00:47:13.956 : en:Chapter 8
00:51:01.225 : en:Chapter 9
00:53:26.745 : en:Chapter 10
00:59:29.399 : en:Chapter 11
01:04:45.131 : en:Chapter 12
01:07:36.761 : en:Chapter 13
01:13:18.769 : en:Chapter 14
01:19:51.036 : en:Chapter 15
01:25:54.483 : en:Chapter 16

Скриншоты

[Профиль] [ЛС]
Показать сообщения:    

Текущее время: Сегодня 13:45

Часовой пояс: GMT



Вы не можете начинать темы
Вы не можете отвечать на сообщения
Вы не можете редактировать свои сообщения
Вы не можете удалять свои сообщения
Вы не можете голосовать в опросах
Вы не можете прикреплять файлы к сообщениям
Вы не можете скачивать файлы