Любовь и другие лекарства / Love & Other Drugs (Эдвард Цвик / Edward Zwick) [2010, США, драма, мелодрама, комедия, BDRip] DUB + Subs (2 x Rus; 2 x Eng; 2 x Ukr) + Original Eng

 
Автор Сообщение

painkiller ®

Стаж: 2 года 3 месяца

Сообщений: 582



Награды: Нет

Торрент-статистика

Создавать темы 15-Авг-2014 01:09

[Цитировать]

Любовь и другие лекарства / Love & Other Drugs- Страна: США
Жанр: драма, мелодрама, комедия
Год выпуска: 2010
Продолжительность: 01:52:20-Перевод: Профессиональный (дублированный)
Cубтитры: русские (надписи), русские (полные), английские, английские (SDH), украинские (надписи), украинские (полные)
Оригинальная аудиодорожка: английский (отдельно)-Режиссер: Эдвард Цвик / Edward Zwick-В ролях: Джейк Джилленхол, Энн Хэтэуэй, Оливер Платт, Хэнк Азария, Джош Гад, Гэбриел Махт, Джуди Грир, Джордж Сигал, Джилл Клейбёрг, Кейт Дженнингс Грант ...-Описание: Девушка широких взглядов Мэгги встречает мужчину своей мечты в лице обаятельного продавца виагры, Джейми. Они начинают легкую интрижку, но оказывается, что надвигающаяся трагедия переворачивает их жизни. Но между Мэгги и Джейми существует особая «химия», они находятся под влиянием абсолютного наркотика… по имени любовь.-Доп. информация: КиноПоиск: 6.800 (37 953) | IMDb: 6.60 (101 267) | Сэмпл-Качество видео: BDRip
Формат видео: AVI-Видео: 704x384 (1.83:1), 23.976 fps, XviD build 73 ~2390 kbps avg, 0.37 bit/pixel
Аудио 1: 48 kHz, AC3 Dolby Digital, 3/2 (L,C,R,l,r) + LFE ch, ~384 kbps RUS
Аудио 2: 48 kHz, AC3 Dolby Digital, 3/2 (L,C,R,l,r) + LFE ch, ~384 kbps ENG (отеднльно)
Формат субтитров: softsub (SRT)

Знаете ли вы, что...

Фильм снят по мотивам научно-популярной автобиографической книги Джейми Рейди «Как я продавал виагру. Правдивая история о голубой таблетке, которую знает весь мир, о людях, продающих возбуждение, и о тайнах фармацевтического бизнеса» (Hard Sell: The Evolution of a Viagra Salesman, 2005).

MediaInfo

Format : AVIFormat/Info : Audio Video InterleaveFormat profile : OpenDMLFile size : 2.18 GiBDuration : 1h 52mnOverall bit rate : 2 781 KbpsMovie name : Любовь и другие лекарстваDirector : derdevil13Writing application : VirtualDubMod 1.5.10.3 | www.virtualdub-fr.org || (build 2550/release)
VideoID : 0Format : MPEG-4 VisualFormat profile : Advanced Simple@L5Format settings, BVOP : 2Format settings, QPel : NoFormat settings, GMC : No warppointsFormat settings, Matrix : CustomCodec ID : XVIDCodec ID/Hint : XviDDuration : 1h 52mnBit rate : 2 385 KbpsWidth : 704 pixelsHeight : 384 pixelsDisplay aspect ratio : 1.85:1Frame rate : 23.976 fpsColor space : YUVChroma subsampling : 4:2:0Bit depth : 8 bitsScan type : ProgressiveCompression mode : LossyBits/(Pixel*Frame) : 0.368Stream size : 1.87 GiB (86%)Writing library : XviD 73
AudioID : 1Format : AC-3Format/Info : Audio Coding 3Mode extension : CM (complete main)Format settings, Endianness : BigCodec ID : 2000Duration : 1h 52mnBit rate mode : ConstantBit rate : 384 KbpsChannel(s) : 6 channelsChannel positions : Front: L C R, Side: L R, LFESampling rate : 48.0 KHzBit depth : 16 bitsCompression mode : LossyStream size : 309 MiB (14%)Alignment : Split accross interleavesInterleave, duration : 42 ms (1.00 video frame)Interleave, preload duration : 500 ms

Скриншоты

Удаление / добавление звуковой(ых) дорожки(ек) и / или субтитров в контейнер AVI

Программы для работы с контейнерами --- VirtualDub (AVI)
http://torrentfilm.net/forum/viewtopic.php?t=2660545

Как подключить альтернативную (внешнюю) звуковую дорожку к видео?

http://torrentfilm.net/forum/viewtopic.php?t=2403326
Пожалуйста, оставайтесь на раздаче как можно дольше-
[Профиль] [ЛС]

Создавать темы 06-Авг-2015 23:11 (спустя 11 месяцев 22 дня)

Топик был перенесен из форума Фильмы до 2014 года в форум Фильмы до 2012 года
sergej644
 

Создавать темы 12-Июн-2016 07:54 (спустя 1 год 9 месяцев)

Топик был перенесен из форума Фильмы 2011 года в форум Фильмы 2010 года
Russian Mafia
 
Показать сообщения:    

Текущее время: Сегодня 19:35

Часовой пояс: GMT



Вы не можете начинать темы
Вы не можете отвечать на сообщения
Вы не можете редактировать свои сообщения
Вы не можете удалять свои сообщения
Вы не можете голосовать в опросах
Вы не можете прикреплять файлы к сообщениям
Вы не можете скачивать файлы