Любовь и голуби. Рождение легенды (Юлия Ермолена) [2014, Документальный, HDTV 1080i]

 
Автор Сообщение

TorrentFilm ®

Пол:

Стаж: 2 года

Сообщений: 7741



Награды: Нет

Торрент-статистика

Создавать темы 09-Янв-2015 00:00

[Цитировать]

Любовь и голуби. Рождение легенды
Год выпуска: 2014
Страна: Россия
Студия: Первый канал
Жанр: Документальный
Продолжительность: 00:49:51
Перевод: Не требуется
Русские субтитры: нет
Режиссер: Юлия Ермолена
Описание: Фильм "Любовь и голуби. Рождение легенды" расскажет о том, как создавалось всеми любимое, народное кино. Сцены, изъятые цензурой. Уникальные кадры со съемочной площадки. Неспетые песни и несыгранные роли. Владимир Меньшов расскажет, как решился снимать "Любовь и голуби" через пять лет после выхода его знаменитой картины "Москва слезам не верит". После грандиозного успеха режиссер долго не брался за новое кино. Но именно простая история о деревенской любви заставила его снова приступить к съемкам. Режиссер вспомнит о том, как проходили пробы, на какие роли пробовались Татьяна Доронина, Любовь Полищук, Наталья Кустинская, и как были утверждены именно те актеры, которых так полюбили зрители. В архивах "Мосфильма" сохранились уникальные документы с требованиями вырезать из картины отдельные фразы и выражения убрать "бытовые сцены". Фильм выходил на экраны в разгар антиалкогольной кампании в стране, поэтому все сцены с алкогольными напитками требовали вырезать. Владимир Меньшов согласился убрать только одну – она и спасла картину. Об этой вырезанной сцене создатели "Любовь и голуби" вспомнят в нашем фильме. Родные покойного сценариста фильма Владимира Гуркина расскажут о том, как создавалась пьеса "Любовь и голуби", по которой в последствии и был написан сценарий. Оказывается, Владимир Гуркин ничего не придумал. А просто рассказал реальную историю из жизни настоящих Надежды и Василия Кузякиных – жителей его родного села Черемхово Иркутской области. В Черемхово и сегодня сохранился дом Кузякиных, мать Владимира Гуркина до сих пор помнит эту семью и историю с курортным романом, едва не погубившим брак. Вдова Владимира Гуркина покажет уникальные артефакты, сохранившиеся со времен съемок - печатную машинку, на которой создавался сценарий, фотографии с автографами актеров, "хлопушку", которую использовали на съемках. "Дети семьи Кузякиных" - Игорь Лях и Лада Сизоненко расскажут о том, как попали в большое кино, и как оно повлияло на их жизни. Бывший муж Людмилы Гурченко Константин Купервейс поделится, как готовилась к съемкам актриса. Роль Раисы Захаровны – ее заслуга. В сценарии роль разлучницы была прописана мало, и Гурченко придумала свою героиню сама прямо на съемках. Художник по костюмам Наталья Монева расскажет, как прямо на съемках у Нины Дорошиной неожиданно родилась идея в сцене драки оторвать у Гурченко что-нибудь от костюма. Так за одну ночь появился знаменитый красный берет с помпоном. Самой сложной задачей для костюмера были образы Тети Шуры и Дяди Мити. Наталье Теняковой на момент съемок было всего 38 лет, но благодаря хитростям костюма и грима на экране она превратилась в старуху. Оператор-постановщик картины, директор и другие создатели, обычно остающиеся за кадром, раскроют все секреты рождения легенды.
Доп. информация: Релиз -

Рип чистый. Без посторонних надписей. Выкладывается как есть.
Качество: HDTV 1080i
Контейнер: TS
Видео кодек: AVC
Аудио кодек: MP2, AC3
Видео: 1920x1080 (16:9) 25.000 fps ~ 8 638 Kbps, 0.167 bit/pixel
Аудио 1: MPEG Audio 48000Hz stereo 224 Кбит/сек
Аудио 2: AC3, 6 channels, 48000Hz, 384 Кбит/сек

Скриншоты


Скринлист

MI

GeneralID : 1 (0x1)Complete name : H:\ВЫКЛАДКА\Любовь и голуби. Рождение легенды (2014, Документальный, HDTV 1080i) (MYDIMKA).tsFormat : MPEG-TSFile size : 3.39 GiBDuration : 49mn 51sOverall bit rate mode : VariableOverall bit rate : 9 733 Kbps
VideoID : 1902 (0x76E)Menu ID : 92 (0x5C)Format : AVCFormat/Info : Advanced Video CodecFormat profile : High@L4.0Format settings, CABAC : YesFormat settings, ReFrames : 3 framesCodec ID : 27Duration : 49mn 51sBit rate : 8 638 KbpsWidth : 1 920 pixelsHeight : 1 080 pixelsDisplay aspect ratio : 16:9Frame rate : 25.000 fpsStandard : ComponentColor space : YUVChroma subsampling : 4:2:0Bit depth : 8 bitsScan type : InterlacedScan order : Top Field FirstBits/(Pixel*Frame) : 0.167Stream size : 3.01 GiB (89%)Color primaries : BT.709Transfer characteristics : BT.709Matrix coefficients : BT.709
Audio #1ID : 2902 (0xB56)Menu ID : 92 (0x5C)Format : AC-3Format/Info : Audio Coding 3Mode extension : CM (complete main)Format settings, Endianness : BigCodec ID : 6Duration : 49mn 51sBit rate mode : ConstantBit rate : 384 KbpsChannel(s) : 6 channelsChannel positions : Front: L C R, Side: L R, LFESampling rate : 48.0 KHzBit depth : 16 bitsCompression mode : LossyStream size : 137 MiB (4%)Language : Russian
Audio #2ID : 2903 (0xB57)Menu ID : 92 (0x5C)Format : MPEG AudioFormat version : Version 1Format profile : Layer 2Codec ID : 3Duration : 49mn 51sBit rate mode : ConstantBit rate : 224 KbpsChannel(s) : 2 channelsSampling rate : 48.0 KHzCompression mode : LossyStream size : 79.9 MiB (2%)Language : Russian
[Профиль] [ЛС]
Показать сообщения:    

Текущее время: Сегодня 18:51

Часовой пояс: GMT



Вы не можете начинать темы
Вы не можете отвечать на сообщения
Вы не можете редактировать свои сообщения
Вы не можете удалять свои сообщения
Вы не можете голосовать в опросах
Вы не можете прикреплять файлы к сообщениям
Вы не можете скачивать файлы